Скачать через торрент музыку Goldsmith Conducts Goldsmith бесплатно без регистрации torrent

Если у вас наблюдаются проблемы со скриншотами, переходом по ссылками, скачиванием торрентов - проблемы в блокировщике рекламы AdBlock. #хорошегоДня!


Статистика раздачи
Размер:  395 MB   |    Зарегистрирован:  5 лет 10 месяцев   |    .torrent скачан:  28 раз   |   
Раздают:  1  
   
Загрузка...
 
Автор Сообщение

Galfimbul

avatar Galfimbul


Goldsmith Conducts Goldsmith

Название альбома: Goldsmith Conducts Goldsmith
Жанр: Score
Композитор: Jerry Goldsmith
Год выпуска диска: 2002
Страна-производитель диска: Великобритания
Издатель (лейбл): Silva Screen
Номер по каталогу: FILMCD 336
Аудиокодек: WavPack (*.wv)
Тип рипа: image+.cue
Битрейт аудио: lossless
Продолжительность: 1:11:05
Источник: emule
Наличие сканов в содержимом раздачи: да

Треклист:
01. The Blue Max - Overture
02. The Blue Max - First Flight
03. The Blue Max - The Bridge
04. The Blue Max - The Attack
05. The Blue Max - Finale
06. Television Themes Medley (The Man From U.n.c.l.e. / Doctor Kildare / Room 222 / The Waltons / Barna)
07. Masada - Main Theme
08. Gremlins - Suite
09. Motion Picture Themes Medley (The Sand Pebbles / Chinatown / A Patch Of Blue / Poltergeist / Papillon)
10. Macarthur / Patton - The Generals Suite
11. Lionheart - Robert's Theme
12. Legend - Faerie Dance / Re-united
 
Exact Audio Copy V0.99 prebeta 5 from 4. May 2009

EAC extraction logfile from 6. March 2011, 16:29

Jerry Goldsmith / Goldsmith Conducts Goldsmith

Used drive : ASUS DRW-2014S1T Adapter: 2 ID: 0

Read mode : SecureUtilize accurate stream : YesDefeat audio cache : YesMake use of C2 pointers : No

Read offset correction : 6Overread into Lead-In and Lead-Out : NoFill up missing offset samples with silence : YesDelete leading and trailing silent blocks : NoNull samples used in CRC calculations : YesUsed interface : Installed external ASPI interface

Used output format : Internal WAV RoutinesSample format : 44.100 Hz; 16 Bit; Stereo

TOC of the extracted CD

Track | Start | Length | Start sector | End sector --------------------------------------------------------- 1 | 0:00.00 | 2:22.04 | 0 | 10653 2 | 2:22.04 | 3:01.53 | 10654 | 24281 3 | 5:23.57 | 3:15.74 | 24282 | 38980 4 | 8:39.56 | 5:10.24 | 38981 | 62254 5 | 13:50.05 | 2:39.22 | 62255 | 74201 6 | 16:29.27 | 9:49.56 | 74202 | 118432 7 | 26:19.08 | 5:41.39 | 118433 | 144046 8 | 32:00.47 | 7:45.32 | 144047 | 178953 9 | 39:46.04 | 14:27.08 | 178954 | 243986 10 | 54:13.12 | 5:28.12 | 243987 | 268598 11 | 59:41.24 | 4:10.52 | 268599 | 287400 12 | 63:52.01 | 7:12.69 | 287401 | 319869

Range status and errors

Selected range

Filename D:\Jerry Goldsmith - Goldsmith Conducts Goldsmith\Score\Jerry Goldsmith - Goldsmith Conducts Goldsmith.wav

Peak level 98.3 % Range quality 100.0 % Copy CRC C3FF964B Copy OK

No errors occurred

End of status report
 
REM DATE 2002REM GENRE SoundtrackREM DISCID A310A80CREM COMMENT "ExactAudioCopy v0.99pb5"PERFORMER "Jerry Goldsmith"TITLE "Goldsmith Conducts Goldsmith"FILE "Jerry Goldsmith - Goldsmith Conducts Goldsmith.wav" WAVE TRACK 01 AUDIO TITLE "The Blue Max Suite - Overture" PERFORMER "Jerry Goldsmith" INDEX 01 00:00:00 TRACK 02 AUDIO TITLE "The Blue Max Suite - First Flight" PERFORMER "Jerry Goldsmith" INDEX 01 02:22:04 TRACK 03 AUDIO TITLE "The Blue Max Suite - The Bridge" PERFORMER "Jerry Goldsmith" INDEX 01 05:23:57 TRACK 04 AUDIO TITLE "The Blue Max Suite - The Attack" PERFORMER "Jerry Goldsmith" INDEX 01 08:39:56 TRACK 05 AUDIO TITLE "The Blue Max Suite - Finale" PERFORMER "Jerry Goldsmith" INDEX 01 13:50:05 TRACK 06 AUDIO TITLE "Television Themes - Medley" PERFORMER "Jerry Goldsmith" INDEX 00 16:28:06 INDEX 01 16:29:27 TRACK 07 AUDIO TITLE "Masada - Main Themes" PERFORMER "Jerry Goldsmith" INDEX 00 26:16:34 INDEX 01 26:19:08 TRACK 08 AUDIO TITLE "Gremlins - Suite" PERFORMER "Jerry Goldsmith" INDEX 00 31:58:20 INDEX 01 32:00:47 TRACK 09 AUDIO TITLE "Motion Picture Themes - Medley" PERFORMER "Jerry Goldsmith" INDEX 00 39:44:60 INDEX 01 39:46:04 TRACK 10 AUDIO TITLE "Macarthur/Patton - The Generals Suite" PERFORMER "Jerry Goldsmith" INDEX 00 54:09:61 INDEX 01 54:13:12 TRACK 11 AUDIO TITLE "Lionheart - Robert's Theme" PERFORMER "Jerry Goldsmith" INDEX 00 59:39:31 INDEX 01 59:41:24 TRACK 12 AUDIO TITLE "Legend - Faerie Dance/Re-united" PERFORMER "Jerry Goldsmith" INDEX 00 63:48:51 INDEX 01 63:52:01


Трекер:  [ 02-Фев-2012 21:52 ]

  

Скачать .torrent

Размер .torrent файла 16 KB


Размер: 395 MB
Хэш (hash) релиза: 153f91230b6f52aebe2a1d65344361e752e3cb8c

Торренты, похожие на Goldsmith Conducts Goldsmith скачать торрент

Форум Название Автор Размер S L Добавлен
Саундтреки к фильмам и мультфильмам (mp3) ·· (Score) Goldsmith Conducts Goldsmith (by Jerry Goldsmith) - 2002, MP3, 320 kbps Mos 184155830176 MB 0 0 1325838709

11:31

6-Янв-12

bot

Топик был перенесен в форум Саундтреки к фильмам и мультфильмам (lossless)

Перенес Galfimbul

Хотите добавить комментарий к записи скачать торрент Goldsmith Conducts Goldsmith

!Обратная связь