Скачать через торрент музыку Лис The Fox бесплатно без регистрации torrent

Если у вас наблюдаются проблемы со скриншотами, переходом по ссылками, скачиванием торрентов - проблемы в блокировщике рекламы AdBlock. #хорошегоДня!


Статистика раздачи
Размер:  366 MB   |    Зарегистрирован:  5 лет 10 месяцев   |    .torrent скачан:  28 раз   |   
Раздают:  1  
   
Загрузка...
 
Автор Сообщение

uzi2009

avatar uzi2009


Лис / The Fox



Жанр: Score
Композитор: Lalo Schifrin
Год выпуска диска: 1999
Год выпуска фильма: 1967
Страна-производитель диска: США
Издатель (лейбл): Aleph Records
Номер по каталогу: 017
Аудиокодек: WavPack (*.wv)
Тип рипа: image+.cue
Битрейт аудио: lossless
Продолжительность: 1:00:45
Наличие сканов в содержимом раздачи: да

Треклист:
01. The Fox, main title (05:06)
02. Reflextions (02:51)
03. Paul's Memories (02:25)
04. Fox Variation #1 (01:45)
05. Frost Trees (03:32)
06. Lovers (02:55)
07. The Proposal (02:06)
08. Fox Variation #2 (02:26)
09. Lonely Road (02:40)
10. Minuet In C (03:02)
11. Snowy Bushes (04:19)
12. That Night (04:16)
13. Desperate Interlude (02:23)
14. New Shingles (02:53)
15. Dripping Icicles (02:36)
16. Dead Leaf (04:30)
17. The Blue Vase (03:21)
18. The Foxhole (02:42)
19. The Fox Symphony (04:50)
 
EAC extraction logfile from 16. January 2007, 10:38 for CDLalo Schifrin / The Fox

Used drive : PLEXTOR DVDR PX-760A Adapter: 1 ID: 0Read mode : Secure with NO C2, accurate stream, disable cacheRead offset correction : 30Overread into Lead-In and Lead-Out : No

Used output format : Internal WAV Routines 44.100 Hz; 16 Bit; Stereo

Other options : Fill up missing offset samples with silence : Yes Delete leading and trailing silent blocks : No Installed external ASPI interface

Range status and errorsSelected range Filename D:\HQShare.Net Releases\Lalo Schifrin - The Fox (Re-recording)\Listen\Lalo Schifrin - The Fox.wav

Peak level 100.0 % Range quality 100.0 % CRC BF2C9436 Copy OK

No errors occured

End of status report
 
REM GENRE SoundtrackREM DATE 1999REM DISCID 1E0E3D13REM COMMENT "ExactAudioCopy v0.95b4"PERFORMER "Lalo Schifrin"TITLE "The Fox"FILE "Lalo Schifrin - The Fox.wv" WAVE TRACK 01 AUDIO TITLE "The Fox (main title)" PERFORMER "Lalo Schifrin" INDEX 01 00:00:00 TRACK 02 AUDIO TITLE "Reflections" PERFORMER "Lalo Schifrin" INDEX 00 05:04:17 INDEX 01 05:05:72 TRACK 03 AUDIO TITLE "Paul's Memories" PERFORMER "Lalo Schifrin" INDEX 00 07:56:07 INDEX 01 07:59:10 TRACK 04 AUDIO TITLE "Fox Variation #1" PERFORMER "Lalo Schifrin" INDEX 00 10:21:22 INDEX 01 10:23:35 TRACK 05 AUDIO TITLE "Frost Trees" PERFORMER "Lalo Schifrin" INDEX 00 12:06:72 INDEX 01 12:09:67 TRACK 06 AUDIO TITLE "Lovers" PERFORMER "Lalo Schifrin" INDEX 01 15:39:57 TRACK 07 AUDIO TITLE "The Proposal" PERFORMER "Lalo Schifrin" INDEX 00 18:35:54 INDEX 01 18:37:22 TRACK 08 AUDIO TITLE "Fox Variation #2" PERFORMER "Lalo Schifrin" INDEX 00 20:42:17 INDEX 01 20:44:67 TRACK 09 AUDIO TITLE "Lonely Road" PERFORMER "Lalo Schifrin" INDEX 00 23:08:54 INDEX 01 23:11:00 TRACK 10 AUDIO TITLE "Minuet in C" PERFORMER "Lalo Schifrin" INDEX 00 25:49:12 INDEX 01 25:51:12 TRACK 11 AUDIO TITLE "Snowy Bushes" PERFORMER "Lalo Schifrin" INDEX 00 28:51:12 INDEX 01 28:53:60 TRACK 12 AUDIO TITLE "That Night" PERFORMER "Lalo Schifrin" INDEX 00 33:10:15 INDEX 01 33:12:65 TRACK 13 AUDIO TITLE "Desperate Interlude" PERFORMER "Lalo Schifrin" INDEX 01 37:26:47 TRACK 14 AUDIO TITLE "New Shingles" PERFORMER "Lalo Schifrin" INDEX 00 39:49:70 INDEX 01 39:51:57 TRACK 15 AUDIO TITLE "Dripping Icicles" PERFORMER "Lalo Schifrin" INDEX 00 42:43:52 INDEX 01 42:45:52 TRACK 16 AUDIO TITLE "Dead Leaf" PERFORMER "Lalo Schifrin" INDEX 00 45:20:15 INDEX 01 45:22:47 TRACK 17 AUDIO TITLE "The Blue Vase" PERFORMER "Lalo Schifrin" INDEX 00 49:50:37 INDEX 01 49:52:40 TRACK 18 AUDIO TITLE "The Foxhole" PERFORMER "Lalo Schifrin" INDEX 01 53:12:30 TRACK 19 AUDIO TITLE "The Fox Symphony" PERFORMER "Lalo Schifrin" INDEX 00 55:54:45 INDEX 01 55:56:47


Трекер:  [ 18-Янв-2012 16:22 ]

  

Скачать .torrent

Размер .torrent файла 15 KB


Размер: 366 MB
Хэш (hash) релиза: 644e607641bd720da6f4630cd20546e2162430bd

bot

Топик был перенесен в форум Саундтреки к фильмам и мультфильмам (lossless)

Перенес uzi2009

Хотите добавить комментарий к записи скачать торрент Лис The Fox

!Обратная связь