Скачать через торрент музыку Антикиллер - 2002, APE бесплатно без регистрации torrent

Если у вас наблюдаются проблемы со скриншотами, переходом по ссылками, скачиванием торрентов - проблемы в блокировщике рекламы AdBlock. #хорошегоДня!


Статистика раздачи
Размер:  345 MB   |    Зарегистрирован:  5 лет 10 месяцев   |    .torrent скачан:  43 раза   |   
Раздают:  1  
   
Загрузка...
 
Автор Сообщение

Galfimbul

avatar Galfimbul


Антикиллер

Жанр: Score
Год выпуска диска: 2002
Страна-производитель диска: Россия
Издатель (лейбл): CDLand
Номер по каталогу: CDLR 0230 CD
Аудио кодек: APE (*.ape)
Тип рипа: image+.cue
Битрейт аудио: lossless
Продолжительность: 58:53
Источник: собственный рип
Наличие сканов в содержимом раздачи: нет

Треклист:
 
I Линда - Зрение
II Netslov - Valhala
III Ря/Ба Муtанtъ Vs Compass Vrubell - Untitled Remix
IV Netslov - Vargy
V Netslov - Kioto
VI Netslov - Arkan (Short Edit)
VII Паста - ПастаVIII Netslov - Funerique
IX Netslov - Morais
X Netslov - Urban
XI Каста - Горячее время
XII Netslov - Стрелка
XIII Netslov - Saturn
XIV Netslov - Trancool
XV Netslov - 5th Element
 
Exact Audio Copy V0.99 prebeta 5 from 4. May 2009

Отчёт EAC об извлечении, выполненном 2. марта 2011, 19:31

Various / AntiKiller

Дисковод: HL-DT-STDVDRAM GE20NU10 Adapter: 3 ID: 0

Режим чтения : ДостоверностьИспользование точного потока : ДаОтключение кэша аудио : ДаИспользование указателей C2 : Нет

Коррекция смещения при чтении : 667Способность читать области Lead-in и Lead-out : НетЗаполнение пропущенных сэмплов тишиной : ДаУдаление блоков с тишиной в начале и конце : НетПри вычислениях CRC использовались нулевые сэмплы : ДаИнтерфейс : Встроенный Win32-интерфейс для Win NT/2000

Выходной формат : Внутренние WAV-операцииФормат сэмплов : 44.100 Гц; 16 бит; стерео

TOC извлечённого CD

Трек | Старт | Длительность | Начальный сектор | Конечный сектор --------------------------------------------------------------------- 1 | 0:00.00 | 3:18.26 | 0 | 14875 2 | 3:18.26 | 3:54.49 | 14876 | 32474 3 | 7:13.00 | 4:43.28 | 32475 | 53727 4 | 11:56.28 | 3:38.30 | 53728 | 70107 5 | 15:34.58 | 2:40.74 | 70108 | 82181 6 | 18:15.57 | 6:18.06 | 82182 | 110537 7 | 24:33.63 | 4:29.59 | 110538 | 130771 8 | 29:03.47 | 4:12.66 | 130772 | 149737 9 | 33:16.38 | 5:06.56 | 149738 | 172743 10 | 38:23.19 | 1:33.72 | 172744 | 179790 11 | 39:57.16 | 4:58.73 | 179791 | 202213 12 | 44:56.14 | 3:55.46 | 202214 | 219884 13 | 48:51.60 | 2:06.49 | 219885 | 229383 14 | 50:58.34 | 3:28.12 | 229384 | 244995 15 | 54:26.46 | 4:26.34 | 244996 | 264979

Характеристики диапазона извлечения и сообщения об ошибках

Выбранный диапазон

Имя файла C:\...\Various - AntiKiller.wav

Пиковый уровень 97.7 % Качество диапазона 99.9 % CRC копии AC658932 Копирование... OK

Ошибок не произошло

AccurateRip: сводка

Трек 1 нет в базе данныхТрек 2 нет в базе данныхТрек 3 нет в базе данныхТрек 4 нет в базе данныхТрек 5 нет в базе данныхТрек 6 нет в базе данныхТрек 7 нет в базе данныхТрек 8 нет в базе данныхТрек 9 нет в базе данныхТрек 10 нет в базе данныхТрек 11 нет в базе данныхТрек 12 нет в базе данныхТрек 13 нет в базе данныхТрек 14 нет в базе данныхТрек 15 нет в базе данных

Ни одного трека нет в базе AccurateRip

Конец отчёта


Трекер:  [ 09-Фев-2012 18:51 ]

  

Скачать .torrent

Размер .torrent файла 14 KB


Размер: 345 MB
Хэш (hash) релиза: 109d3f9786a12ba89a3fa69db556920b03387791

Еще никто не оставлял запись к записи скачать торрент Антикиллер - 2002, APE . Будь первым!

!Обратная связь