Скачать через торрент музыку Монтана бесплатно без регистрации torrent

Если у вас наблюдаются проблемы со скриншотами, переходом по ссылками, скачиванием торрентов - проблемы в блокировщике рекламы AdBlock. #хорошегоДня!


Статистика раздачи
Размер:  210 MB   |    Зарегистрирован:  5 лет 10 месяцев   |    .torrent скачан:  23 раза   |   
Раздают:  1  
   
Загрузка...
 
Автор Сообщение

Galfimbul

avatar Galfimbul


Монтана

Жанр: Score
Композитор: Аркадий Укупник*
Год выпуска диска: 2008
Страна-производитель диска: Россия
Издатель (лейбл): MSH
Номер по каталогу: 011
Аудио кодек: APE (*.ape)
Тип рипа: image+.cue
Битрейт аудио: lossless
Продолжительность: 39:59
Источник: собственный рип
Наличие сканов в содержимом раздачи: нет

Треклист:
1. Интро
2. Александр Маршал - Пыль дорог
3. Евгений Маргулис - Ловец забытых душ
4. Григорий Лепс - Рюмка водки на столе
5. Григорий Лепс - Ностальгия
6. Ограбление банка
7. Телефонный звонок
8. Самоубийство
9. Мы в порядке
10. Аэропорт
11. Спасение мальчика
12. Семьянин
13. Вторжение
14. Предфинал
15. Финал

(*) Кроме: 2 - автор музыки: Е. Маргулис, 3 - автор музыки: Е. Григорьев, 4 - автор музыки: Е. Кобылянский
 
Exact Audio Copy V0.99 prebeta 5 from 4. May 2009

Отчёт EAC об извлечении, выполненном 10. ноября 2010, 22:30

Various / Монтана ОСТ

Дисковод: HL-DT-STDVDRAM GE20NU10 Adapter: 3 ID: 0

Режим чтения : ДостоверностьИспользование точного потока : ДаОтключение кэша аудио : ДаИспользование указателей C2 : Нет

Коррекция смещения при чтении : 667Способность читать области Lead-in и Lead-out : НетЗаполнение пропущенных сэмплов тишиной : ДаУдаление блоков с тишиной в начале и конце : НетПри вычислениях CRC использовались нулевые сэмплы : ДаИнтерфейс : Встроенный Win32-интерфейс для Win NT/2000

Выходной формат : Внутренние WAV-операцииФормат сэмплов : 44.100 Гц; 16 бит; стерео

TOC извлечённого CD

Трек | Старт | Длительность | Начальный сектор | Конечный сектор --------------------------------------------------------------------- 1 | 0:00.00 | 0:36.15 | 0 | 2714 2 | 0:36.15 | 4:10.70 | 2715 | 21534 3 | 4:47.10 | 1:37.00 | 21535 | 28809 4 | 6:24.10 | 4:17.24 | 28810 | 48108 5 | 10:41.34 | 5:58.24 | 48109 | 74982 6 | 16:39.58 | 0:52.19 | 74983 | 78901 7 | 17:32.02 | 2:04.39 | 78902 | 88240 8 | 19:36.41 | 2:39.58 | 88241 | 100223 9 | 22:16.24 | 1:39.17 | 100224 | 107665 10 | 23:55.41 | 2:39.55 | 107666 | 119645 11 | 26:35.21 | 2:39.41 | 119646 | 131611 12 | 29:14.62 | 2:31.07 | 131612 | 142943 13 | 31:45.69 | 2:52.25 | 142944 | 155868 14 | 34:38.19 | 3:29.60 | 155869 | 171603 15 | 38:08.04 | 1:50.68 | 171604 | 179921

Характеристики диапазона извлечения и сообщения об ошибках

Выбранный диапазон

Имя файла C:\...\Монтана ОСТ.wav

Пиковый уровень 98.8 % Качество диапазона 100.0 % CRC теста 9A0F02E7 CRC копии 9A0F02E7 Копирование... OK

Ошибок не произошло

AccurateRip: сводка

Трек 1 нет в базе данныхТрек 2 нет в базе данныхТрек 3 нет в базе данныхТрек 4 нет в базе данныхТрек 5 нет в базе данныхТрек 6 нет в базе данныхТрек 7 нет в базе данныхТрек 8 нет в базе данныхТрек 9 нет в базе данныхТрек 10 нет в базе данныхТрек 11 нет в базе данныхТрек 12 нет в базе данныхТрек 13 нет в базе данныхТрек 14 нет в базе данныхТрек 15 нет в базе данных

Ни одного трека нет в базе AccurateRip

Конец отчёта


Трекер:  [ 09-Фев-2012 18:52 ]

  

Скачать .torrent

Размер .torrent файла 17 KB


Размер: 210 MB
Хэш (hash) релиза: f6327755ea53155c7f296e9aa0ec8d71d4e6e43a

Торренты, похожие на Монтана скачать торрент

Форум Название Автор Размер S L Добавлен
Rосk | Mеtаl | Аltеrnаtivе, Рunk, Indереndеnt (mр3) ·· (Indie / Lo-Fi / Folk) Монти Механик - Хороший робот - 2017, MP3, 320 kbps Galfimbul 5776963455 MB 0 0 1513365001

22:10

15-Дек-17

Саундтреки к фильмам и мультфильмам (lossless) ·· (Soundrack) Ханна Монтана / Hannah Montana (Russian Edition) - 2008, FLAC (image+.cue), lossless Galfimbul 357101409341 MB 0 0 1490370628

18:50

24-Мар-17

Саундтреки к аниме (mp3) ·· (OST) Граф Монте-Кристо / Gankutsuou: The Count of Monte Cristo - 2005 г., MP3 (tracks), CBR 320 kbps Galfimbul 523081531499 MB 0 0 1459289515

01:11

30-Мар-16

Rосk | Mеtаl | Аltеrnаtivе, Рunk, Indереndеnt (mр3) ·· (Indie / Lo-Fi / Folk) Монти Механик - Мелодии - 2012, MP3, 64-128 kbps Galfimbul 2245928221 MB 0 0 1424430878

14:14

20-Фев-15

Rосk | Mеtаl | Аltеrnаtivе, Рunk, Indереndеnt (mр3) ·· (Indie / Lo-Fi / Folk) Монти Механик - Интерференция в тонких плёнках (2014) MP3, 320 kbps Galfimbul 5904364756 MB 0 0 1416607469

01:04

22-Ноя-14

Саундтреки к фильмам и мультфильмам (lossless) ·· (Soundtrack) Житие Брайана по Монти Пайтону / Monty Python's Life of Brian - 2003 (1979), FLAC (tracks+.cue), lossless Galfimbul 300226237286 MB 0 0 1324214124

16:15

18-Дек-11

Саундтреки к фильмам и мультфильмам (mp3) ·· (Score) Монте-Карло / Monte Carlo (by Michael Giacchino) - 2011, MP3 (tracks), 320 kbps Mos 120195530115 MB 0 0 1313071838

17:10

11-Авг-11

Саундтреки к фильмам и мультфильмам (lossless) ·· (Soundtrack) Смысл жизни по Монти Пайтону / The Meaning of Life (1983) — Monty Python — 2006, FLAC (tracks+.cue), lossless Galfimbul 471353778450 MB 0 0 1292270453

23:00

13-Дек-10

Саундтреки к фильмам и мультфильмам (lossless) ·· (Soundtrack) Hannah Montana: The Movie / Ханна Монтана: Кино - 2009, FLAC (image+.cue), lossless Galfimbul 451727551431 MB 0 0 1292268781

22:33

13-Дек-10

Саундтреки к фильмам и мультфильмам (lossless) ·· (Soundtrack) Ханна Монтана Навсегда / Hannah Montana Forever - 2010, FLAC (tracks+.cue), lossless AqvaGen 285345166272 MB 0 0 1292268611

22:30

13-Дек-10

Саундтреки к фильмам и мультфильмам (mp3) ·· (Soundtrack / Comedy) Monty Python's Life of Brian / Житие Брайана по Монти Пайтону - 2000, MP3 (tracks), 320 kbps Mos 140443844134 MB 0 0 1292268154

22:22

13-Дек-10

Саундтреки к фильмам и мультфильмам (mp3) ·· (Soundtrack) Ханна Монтана Навсегда / Hannah Montana Forever - 2010, MP3 (tracks), 320 kbps AqvaGen 8960291085 MB 0 0 1292265442

21:37

13-Дек-10

Отечественная Поп-музыка (mp3) ·· (Pop/Rock) Монте Кристо/Monte Cristo - 1999-2009, MP3 (tracks), 128-320 kbps ridek47 185249296177 MB 0 0 1291149009

23:30

30-Ноя-10

Еще никто не оставлял запись к записи скачать торрент Монтана . Будь первым!

!Обратная связь