Скачать через торрент музыку Первая любовь: вот такая музыка - 2009, APE бесплатно без регистрации torrent

Если у вас наблюдаются проблемы со скриншотами, переходом по ссылками, скачиванием торрентов - проблемы в блокировщике рекламы AdBlock. #хорошегоДня!


Статистика раздачи
Размер:  247 MB   |    Зарегистрирован:  5 лет 11 месяцев   |    .torrent скачан:  25 раз   |   
Раздают:  1  
   
Загрузка...
 
Автор Сообщение

uzi2009

avatar uzi2009


Первая любовь: вот такая музыка



Жанр: Soundtrack
Год выпуска диска: 2009
Страна-производитель диска: Россия
Издатель (лейбл): Sony Music
Номер по каталогу: 88697 47000 2
Аудио кодек: APE (*.ape)
Тип рипа: image+.cue
Битрейт аудио: lossless
Продолжительность: 35:47

Треклист:
01. Сергей Бабкин - Музыка в ночи
02. Бабкин/Макеева/Ялинская - Музыка моя
03. Андрей Залужный/Юлия Савичева - Растворюсь в тебе
04. Макеева/Кисарев/Аллобян/Панин/Замараев - Давай! Играй!
05. Бабкин/Савичева/Тетруашвили - С днем рождения
06. Андрей Залужный/Юлия Савичева - Разбитое сердце
07. Залужный/Савичева/Аллобян/Замараев/Панин - Одной судьбой
08. Макеева/Ялинская/Золигин/Александрович-Плиткин - Не отставай
09. Макеева/Залужный/Аллобян/Панин/Замараев/Савичева - Танцуй со мной
10. Бабкин/Залужный/Аллобян/Панин/Замараев/Савичева - Этот голос

Доп.информация:
ПЛВТМ - музыкальная комедия, российский вариант фильма "Teen Musical". Премьера - март 2009. Русские тексты песен - Елизавета Хрипунова и Алексей Кортнев.
 
Exact Audio Copy V0.99 prebeta 5 from 4. May 2009

Отчёт EAC об извлечении, выполненном 1. октября 2010, 21:21

Various / Первая любовь (вот такая музыка) OST

Дисковод: HL-DT-STDVDRAM GE20NU10 Adapter: 3 ID: 0

Режим чтения : ДостоверностьИспользование точного потока : ДаОтключение кэша аудио : ДаИспользование указателей C2 : Нет

Коррекция смещения при чтении : 667Способность читать области Lead-in и Lead-out : НетЗаполнение пропущенных сэмплов тишиной : ДаУдаление блоков с тишиной в начале и конце : НетПри вычислениях CRC использовались нулевые сэмплы : ДаИнтерфейс : Встроенный Win32-интерфейс для Win NT/2000

Выходной формат : Внутренние WAV-операцииФормат сэмплов : 44.100 Гц; 16 бит; стерео

TOC извлечённого CD

Трек | Старт | Длительность | Начальный сектор | Конечный сектор --------------------------------------------------------------------- 1 | 0:00.00 | 4:02.72 | 0 | 18221 2 | 4:02.72 | 3:34.61 | 18222 | 34332 3 | 7:37.58 | 3:43.25 | 34333 | 51082 4 | 11:21.08 | 3:11.37 | 51083 | 65444 5 | 14:32.45 | 3:46.49 | 65445 | 82443 6 | 18:19.19 | 4:27.60 | 82444 | 102528 7 | 22:47.04 | 3:47.05 | 102529 | 119558 8 | 26:34.09 | 2:13.07 | 119559 | 129540 9 | 28:47.16 | 2:38.73 | 129541 | 141463 10 | 31:26.14 | 4:20.65 | 141464 | 161028

Характеристики диапазона извлечения и сообщения об ошибках

Выбранный диапазон

Имя файла C:\...\Various - Первая любовь (вот такая музыка) OST.wav

Пиковый уровень 95.5 % Качество диапазона 100.0 % CRC теста 0DFB009B CRC копии 0DFB009B Копирование... OK

Ошибок не произошло

AccurateRip: сводка

Трек 1 нет в базе данныхТрек 2 нет в базе данныхТрек 3 нет в базе данныхТрек 4 нет в базе данныхТрек 5 нет в базе данныхТрек 6 нет в базе данныхТрек 7 нет в базе данныхТрек 8 нет в базе данныхТрек 9 нет в базе данныхТрек 10 нет в базе данных

Ни одного трека нет в базе AccurateRip

Конец отчёта


Трекер:  [ 18-Янв-2012 15:30 ]

  

Скачать .torrent

Размер .torrent файла 20 KB


Размер: 247 MB
Хэш (hash) релиза: 775c52e58a46950e393fb89e4c9b9a930ac00097

bot

Топик был перенесен в форум Саундтреки к фильмам и мультфильмам (lossless)

Перенес uzi2009

Хотите добавить комментарий к записи скачать торрент Первая любовь: вот такая музыка - 2009, APE

!Обратная связь