Скачать через торрент музыку Colosseum - LiveS бесплатно без регистрации torrent

Если у вас наблюдаются проблемы со скриншотами, переходом по ссылками, скачиванием торрентов - проблемы в блокировщике рекламы AdBlock. #хорошегоДня!


Статистика раздачи
Размер:  494 MB   |    Зарегистрирован:  5 лет 5 месяцев   |    .torrent скачан:  16 раз   |   
Раздают:  1  
   
Загрузка...
 
Автор Сообщение

Umakiro

avatar Umakiro


Colosseum
LiveS — The Reunion Concerts 1994

Жанр: Progressive Rock, Jazz Rock / Fusion, Blues Rock
Страна исполнителей: (United Kingdom)
Год издания диска: 1995 (2009)
Издатель (лейбл): Universal Music | предположительно, см. „об издании‟

Аудио кодек: (*.flac)
Тип рипа: tracks+.cue
Качество рипа: Test & Copy
AccurateRip summary: All tracks accurately ripped, confidence 3
Битрейт аудио: lossless
Продолжительность: 01:17:15

Источник (релизер): Gunnnnnar (What.CD)
Наличие сканов в содержимом раздачи:
Songs / Tracks Listing:
01. Those About To Die ... <img class="smile" src="/images/smiles/skype/72.gif" alt=" (*)" title="Звезда" align="absmiddle" border="0" /> (Greenslade/Heckstall-Smith/Hiseman/Reeves) — 05:11:11
02. Elegy (James Litherland) — 04:23:45

The Valentyne Suite:
03. a. January's Search (Greenslade/Hiseman) — 05:38:45
04. b. February's Valentyne (Greenslade/Hiseman) — 05:16:15
05. c. The Grass Is Always Greener (Heckstall-Smith/Hiseman) — 09:53:12

06. Theme For An Imaginary Western (Brown/Bruce) — 06:42:28
07. The Machine Demands Another Sacrifice (James Litherland) — 02:02:20
08. Solo Colonia (Drum Solo) (Hiseman) — 12:26:27
09. Lost Angeles (Greenslade/Heckstall-Smith/Farlowe) — 13:28:55
10. Stormy Monday Blues <img class="smile" src="/images/smiles/skype/72.gif" alt=" (*)" title="Звезда" align="absmiddle" border="0" /> (T-Bone Walker) — 12:11:72
The Machine Demands Another Sacrifice/Solo Colonia Lost Angeles, Part 1 Lost Angeles, Part 2
Рейтинг:
Progarchives.com: 4.13 | 17 ratings | 2 reviews | 41% 5 stars
Rateyourmusic.com: 3.77 from 57 ratings | Ranked : #398 for 1995
• Chris Farlowe — vocals
• Dave Greenslade — organ (Hammond), vibraphone, remixing, EMU Proteus 2, Roland U20
• Mark Clarke — bass, vocals, amplifiers
• Dave Clempson (“Clem”) — electric & acoustic guitar, vocals
• Dick Heckstall-Smith — soprano saxophone, tenor saxophone
• Jon Hiseman — gong, Pearl drums, Paiste cymbals

Notes:
Recorded live at E-Werk, Cologne, Germany, 28/10/1994; <img class="smile" src="/images/smiles/skype/72.gif" alt=" (*)" title="Звезда" align="absmiddle" border="0" /> — at Zelt-Musik-Festival, Freiburg, Germany, 24/06/1994.
Produced for Temple Music by Jon Hiseman.
Colosseum (англ. Колизей) — британская джаз-рок группа. Влиятельная британская прогрессивная команда “Colosseum” является детищем барабанщика и автора текстов Джона Хайсмана (Jon Hiseman). Ранее игравший в “Graham Bond Organization” и “John Mayall & The Bluesbreakers” Хайсман основал группу в далеком 1968 году. Компанию ему составили бывшие коллеги по “Bluesbreakers” басист Тони Ривз (Tony Reeves) и саксофонист Дик Хекстолл-Смит (Dick Heckstall-Smith). Кстати, еще до “Блюзбрейкеров” Хайсман и Ривз играли в малоизвестной банде “Wez Minster Five” вместе с клавишником-виртуозом Дэйвом Гринслэйдом (Dave Greenslade), кого также пригласили в новый проект. Доукомплектовали состав вокалистом и гитаристом Джимом Роше (Jim Roche). Тот, правда, не дождался начала записи дебютного альбома и свалил в тень, уступив место Джеймсу Литерлэнду (James Litherland).

Первая же пластинка, “For Those About To Die We Salute You”, попала в лучшую британскую двадцатку. Ее примеру последовал и второй, вышедший в том же году альбом “Valentyne Suite”.

Несмотря на такой успех третий лонгплей, “The Grass Is Greener”, был издан почему-то только в Америке. В его записи принимал участие уже новый гитарист, Клем Клемпсон (Dave (“Clem”) Clempson), ранее игравший в “Bakerloo”. А еще незадолго до получения приглашения в “Colosseum” Клем играл в ансамбле, не имевшем названия, вместе с ударником Кози Пауэллом и басистом Дэйвом Пеггом. Чехарда с составом на этом не закончилась, и вскоре команду покинул Литерлэнд, подавшийся в “Mogul Thrash”. А ко времени выхода третьего британского альбома, “Daughters Of Time”, Тони Ривза сменил Марк Кларк (Mark Clarke). К тому же коллектив пополнился вокалистом Крисом Фарлоу (Chris Farlowe, наст. имя — Джон Генри Дейтон, англ. John Henry Deighton). Перед выходом концертника “Colosseum Live” группе удалось получить контракт от влиятельного лейбла “Bronze”.

Однако это не спасло команду от внутренних неполадок и в октябре 1971 года она была распущена. Музыканты разбрелись в разные стороны – Гринслэйд, прихватив с собой Ривза основал свой “Greenslade”, Фарлоу ушел в “Atomic Rooster”, а Клемпсон, немного потусовавшись с “Snafu”, подался в “Humble Pie”.

Хайсман и Кларк основали тяжелый проект “Tempest” в компании с джаз-роковым гитаристом Алланом Холдсвортом и бывшим участником “Juicy Lucy” Полом Вильямсом. Эта команда выпустила пару альбомов, после чего Хайсман решил реанимировать свой бывший проект под вывеской “Colosseum II”. Однако дело не особо ладилось и вскоре второй “Колизей” также прератил существование. Прошло еще порядком времени, прежде чем бывшие коллеги вновь собрались вместе. Произошло это в 1994 году когда “Colosseum” образца 1971-го снова вышел на сцену. Оказалось, что интерес к группе нисколько не угас и музыканты отыграли с аншлагами около 70 европейских концертов. На основе этих выступлений был выпущен концертник, а также соответствующее видео.

Спустя три года занятые своими делами музыканты наконец-то нашли время для записи студийного альбома и в 1997-м порадовали своих фанатов выпуском “Bread And Circuses”. На следующий год на CD были переизданы ранние релизы “Colosseum”. Следующий (и последний на сегодняшний день) студийный альбом “Tomorrow's Blues” вышел в 2003 году. 17 декабря 2004 года умер один из основателей группы Дик Хекстолл-Смит. Саксофонистка Барбара Томсон (Barbara Thompson), до этого эпизодически игравшая с группой, с тех пор входит в состав коллектива на постоянной основе. По сей день “Colosseum” продолжает давать концерты, однако это происходит довольно редко.
~ wikipedia
LiveS — The Reunion Concerts 1994
В 1975 году Хайсман решил реанимировать свой бывший проект под вывеской “Colosseum II”. Однако дело не особо ладилось и в 1978 году группа, успев записать три альбома, распалась. Прошло еще порядком времени, прежде чем бывшие коллеги вновь собрались вместе. Решение о воссоединении группы было принято во время вечеринки по случаю 50-летия клавишника Дэйва Гринслэйда. Причем Хайсман был настроен весьма скептически, расчитывая на то, что группа сможет дать максимум шесть концертов в Германии, где ее популярность была достаточно большой. Тем не менее, не смотря на вполне оправданные сомнения, “Colosseum” образца 1971-го снова вышел на сцену. Произошло это знаковое событие 24/06/1994 во время проведения Zelt-Musik-Festival (Freiburg, Germany). Успех превзошел все ожидания. Оказалось, что интерес к группе нисколько не угас и музыканты отыграли с аншлагами около 70 (по другим данным, около 100) европейских концертов в течение 1994-95гг.. И почему нет? Два из четырех альбомов, записанных в 1969-71гг. вошли в U.K. Top 20 albums, группа была достаточно популярна в Германии и большей части Европы. И вот спустя 20 лет тот же первоначальный состав вновь на сцене, исполняет свои лучшие, принесшие заслуженную популярность номера. Казалось, что после долгого отсутствия музыканты “вернулись домой”.

Спустя четыре месяца, 28/10/1994, состоялся второй концерт Reunion Tour - E-Werk, Cologne, Germany. Это выступление снималось для немецкого телевидиния. На основе этой записи был выпущен концертный альбом “Live Cologne 1994”, а также соответствующее видео. “The Complete Reunion Concert” - неполная запись именно этого концерта.
Полный аудио-вариант был издан на 2-х CD в 2007 году под названием “Theme for a Reunion”. Кроме вышеперичисленных изданий, на основе первых 2-х концертов Reunion Tour был издан альбом “LiveS: The Reunion Concerts (1994)”. И хотя все композиции, вошедшие в трек-лист можно услышать и в варианте “Theme for a Reunion”, у альбома есть своя особенность - открывающая пластинку композиция “Those About to Die ...” и заключительный трек “Stormy Monday Blues” записаны во время Zelt-Musik-Festival. При этом варианты исполнения “Stormy Monday Blues” отличаются весьма существенно. Что сразу бросается в глаза, так это более чем в два раза большая продолжительность. За счет импровизационных элементов в исполнении лично мне этот вариант показался интересней. Сильней чувствуется атмосфера живого концертного исполнения.

Первоначально альбом был издан на лейбле Intuition (INT 3160 2) в 1995 году, затем переиздан в 2006г. - Sanctuary Records Group Ltd., CMRCD1355.
Что касается издания, представленного в этой раздаче ... Оригинальный релиз был обозначен как Original Release / CD, т.е., если рассуждать логически, речь идет об издании 1995 года. Признаться, я так и думал. Каково же было моё удивление при виде 2009 года в *.cue (и в тегах). К сожалению , детальной информации (“ковриков”) по этому изданию найти не удалось. Однако, упоминания о позднем переиздании 2009 года встречаются. Например, на lastfm или норвежском сайте Universal Music. Думаю, что представленное издание - официальное переиздание (допечатка) с варианта 2006 года, осуществленное UMG в 2009 году. Косвенно этот вывод подтверждает тот факт, что с 2007 Sanctuary Records входит в состав Universal Music Group. Кроме того, на avaxhome был релиз издания 2006 года. Если сравнить логи, то можно увидеть, что TOC и AccurateRip полностью совпадают.~ инф. предоставлена wikipedia, RYM, avaxhome и др.

ARTWORK:
1995 | Intuition Records | INT 3160 2 | Germany

2006 | Castle Music / Sanctuary Records Group Ltd. | CMRCD1355 | Made in the EU (UK)

  
X Lossless Decoder version 20100511 (119.2)

XLD extraction logfile from 2011-01-19 16:04:33 +0100

Colosseum / LiveS: The Reunion Concerts 1994

Used drive : MATSHITA DVD-R UJ-85J (revision FCQ5)

Use cdparanoia mode : YES (CDParanoia III 10.2 engine)Disable audio cache : OK for the drive with cache less than 2750KBMake use of C2 pointers : NORead offset correction : 102Max retry count : 100

TOC of the extracted CD Track | Start | Length | Start sector | End sector --------------------------------------------------------- 1 | 00:00:32 | 05:11:11 | 32 | 23367 2 | 05:11:43 | 04:23:45 | 23368 | 43137 3 | 09:35:13 | 05:38:45 | 43138 | 68532 4 | 15:13:58 | 05:16:15 | 68533 | 92247 5 | 20:29:73 | 09:53:12 | 92248 | 136734 6 | 30:23:10 | 06:42:28 | 136735 | 166912 7 | 37:05:38 | 02:02:20 | 166913 | 176082 8 | 39:07:58 | 12:26:27 | 176083 | 232059 9 | 51:34:10 | 13:28:55 | 232060 | 292714 10 | 65:02:65 | 12:11:72 | 292715 | 347611

All Tracks Album gain : -8.12 dB Peak : 0.999969

Track 01 Filename : /Volumes/Gunnar/What/Colosseum - LiveS: The Reunion Concerts 1994 - 1995 - FLAC /01 Colosseum - Those About To Die.flac

Pre-gap length : 00:02:32

Track gain : -7.78 dB Peak : 0.999969 CRC32 hash (test run) : E80C4919 CRC32 hash : E80C4919 CRC32 hash (skip zero) : 33F59F8D AccurateRip signature : FABDA91A ->Accurately ripped! (confidence 3) Statistics Read error : 0 Skipped (treated as error) : 0 Edge jitter error (maybe fixed) : 0 Atom jitter error (maybe fixed) : 0 Drift error (maybe fixed) : 0 Dropped bytes error (maybe fixed) : 0 Duplicated bytes error (maybe fixed) : 0 Inconsistency in error sectors : 0

Track 02 Filename : /Volumes/Gunnar/What/Colosseum - LiveS: The Reunion Concerts 1994 - 1995 - FLAC /02 Colosseum - Elegy.flac

Pre-gap length : 00:03:58

Track gain : -6.65 dB Peak : 0.938568 CRC32 hash (test run) : 22727A31 CRC32 hash : 22727A31 CRC32 hash (skip zero) : 43C6013B AccurateRip signature : B962D846 ->Accurately ripped! (confidence 3) Statistics Read error : 0 Skipped (treated as error) : 0 Edge jitter error (maybe fixed) : 0 Atom jitter error (maybe fixed) : 0 Drift error (maybe fixed) : 0 Dropped bytes error (maybe fixed) : 0 Duplicated bytes error (maybe fixed) : 0 Inconsistency in error sectors : 0

Track 03 Filename : /Volumes/Gunnar/What/Colosseum - LiveS: The Reunion Concerts 1994 - 1995 - FLAC /03 Colosseum - January's Search (The Valentyne Suite) [Live].flac

Pre-gap length : 00:03:55

Track gain : -4.30 dB Peak : 0.895416 CRC32 hash (test run) : 72E7AB1B CRC32 hash : 72E7AB1B CRC32 hash (skip zero) : EAA2D3A3 AccurateRip signature : B758F144 ->Accurately ripped! (confidence 3) Statistics Read error : 0 Skipped (treated as error) : 0 Edge jitter error (maybe fixed) : 0 Atom jitter error (maybe fixed) : 0 Drift error (maybe fixed) : 0 Dropped bytes error (maybe fixed) : 0 Duplicated bytes error (maybe fixed) : 0 Inconsistency in error sectors : 0

Track 04 Filename : /Volumes/Gunnar/What/Colosseum - LiveS: The Reunion Concerts 1994 - 1995 - FLAC /04 Colosseum - February's Valentyne (The Valentyne Suite) [Live].flac

Pre-gap length : 00:00:03

Track gain : -4.76 dB Peak : 0.963989 CRC32 hash (test run) : F58696E2 CRC32 hash : F58696E2 CRC32 hash (skip zero) : F26B47D2 AccurateRip signature : 3D07977E ->Accurately ripped! (confidence 3) Statistics Read error : 0 Skipped (treated as error) : 0 Edge jitter error (maybe fixed) : 0 Atom jitter error (maybe fixed) : 0 Drift error (maybe fixed) : 0 Dropped bytes error (maybe fixed) : 0 Duplicated bytes error (maybe fixed) : 0 Inconsistency in error sectors : 0

Track 05 Filename : /Volumes/Gunnar/What/Colosseum - LiveS: The Reunion Concerts 1994 - 1995 - FLAC /05 Colosseum - The Grass Is Always Greener (The Valentyne Suite) [Live].flac

Pre-gap length : 00:00:03

Track gain : -8.09 dB Peak : 0.950928 CRC32 hash (test run) : 3193A492 CRC32 hash : 3193A492 CRC32 hash (skip zero) : 964C824B AccurateRip signature : 2ECFA0AC ->Accurately ripped! (confidence 3) Statistics Read error : 0 Skipped (treated as error) : 0 Edge jitter error (maybe fixed) : 0 Atom jitter error (maybe fixed) : 0 Drift error (maybe fixed) : 0 Dropped bytes error (maybe fixed) : 0 Duplicated bytes error (maybe fixed) : 0 Inconsistency in error sectors : 0

Track 06 Filename : /Volumes/Gunnar/What/Colosseum - LiveS: The Reunion Concerts 1994 - 1995 - FLAC /06 Colosseum - Theme For An Imaginary Western.flac

Pre-gap length : 00:03:55

Track gain : -6.94 dB Peak : 0.974274 CRC32 hash (test run) : A0DDB991 CRC32 hash : A0DDB991 CRC32 hash (skip zero) : 842DE9F7 AccurateRip signature : 89AEB8D1 ->Accurately ripped! (confidence 3) Statistics Read error : 0 Skipped (treated as error) : 0 Edge jitter error (maybe fixed) : 0 Atom jitter error (maybe fixed) : 0 Drift error (maybe fixed) : 0 Dropped bytes error (maybe fixed) : 0 Duplicated bytes error (maybe fixed) : 0 Inconsistency in error sectors : 0

Track 07 Filename : /Volumes/Gunnar/What/Colosseum - LiveS: The Reunion Concerts 1994 - 1995 - FLAC /07 Colosseum - The Machine Demands A Sacrifice.flac

Pre-gap length : 00:00:03

Track gain : -7.55 dB Peak : 0.942261 CRC32 hash (test run) : E479A4BE CRC32 hash : E479A4BE CRC32 hash (skip zero) : A1117DC4 AccurateRip signature : EB5B29FB ->Accurately ripped! (confidence 3) Statistics Read error : 0 Skipped (treated as error) : 0 Edge jitter error (maybe fixed) : 0 Atom jitter error (maybe fixed) : 0 Drift error (maybe fixed) : 0 Dropped bytes error (maybe fixed) : 0 Duplicated bytes error (maybe fixed) : 0 Inconsistency in error sectors : 0

Track 08 Filename : /Volumes/Gunnar/What/Colosseum - LiveS: The Reunion Concerts 1994 - 1995 - FLAC /08 Colosseum - Solo Colonia.flac

Pre-gap length : 00:00:03

Track gain : -4.20 dB Peak : 0.967468 CRC32 hash (test run) : 57CDC084 CRC32 hash : 57CDC084 CRC32 hash (skip zero) : 6695B54F AccurateRip signature : EC770609 ->Accurately ripped! (confidence 3) Statistics Read error : 0 Skipped (treated as error) : 0 Edge jitter error (maybe fixed) : 0 Atom jitter error (maybe fixed) : 0 Drift error (maybe fixed) : 0 Dropped bytes error (maybe fixed) : 0 Duplicated bytes error (maybe fixed) : 0 Inconsistency in error sectors : 0

Track 09 Filename : /Volumes/Gunnar/What/Colosseum - LiveS: The Reunion Concerts 1994 - 1995 - FLAC /09 Colosseum - Lost Angeles.flac

Pre-gap length : 00:00:02

Track gain : -10.29 dB Peak : 0.999969 CRC32 hash (test run) : D3F4C2BC CRC32 hash : D3F4C2BC CRC32 hash (skip zero) : 15E66908 AccurateRip signature : 626F9E27 ->Accurately ripped! (confidence 3) Statistics Read error : 0 Skipped (treated as error) : 0 Edge jitter error (maybe fixed) : 0 Atom jitter error (maybe fixed) : 0 Drift error (maybe fixed) : 0 Dropped bytes error (maybe fixed) : 0 Duplicated bytes error (maybe fixed) : 0 Inconsistency in error sectors : 0

Track 10 Filename : /Volumes/Gunnar/What/Colosseum - LiveS: The Reunion Concerts 1994 - 1995 - FLAC /10 Colosseum - Stormy Monday Blues.flac

Pre-gap length : 00:03:55

Track gain : -6.35 dB Peak : 0.946564 CRC32 hash (test run) : DCAEBED8 CRC32 hash : DCAEBED8 CRC32 hash (skip zero) : E9BE776D AccurateRip signature : 923B3ABC ->Accurately ripped! (confidence 3) Statistics Read error : 0 Skipped (treated as error) : 0 Edge jitter error (maybe fixed) : 0 Atom jitter error (maybe fixed) : 0 Drift error (maybe fixed) : 0 Dropped bytes error (maybe fixed) : 0 Duplicated bytes error (maybe fixed) : 0 Inconsistency in error sectors : 0

No errors occurred

End of status report
  
TITLE "LiveS: The Reunion Concerts 1994"PERFORMER "Colosseum"REM GENRE "Rock"REM DATE 2009FILE "01 Colosseum - Those About To Die.wav" WAVE TRACK 01 AUDIO TITLE "Those About To Die" SONGWRITER "Dave Greenslade/Philip John Hiseman/Anthony Robert Reeves/Dick Heckstall-Smith" INDEX 00 00:00:00 INDEX 01 00:00:32 TRACK 02 AUDIO TITLE "Elegy" SONGWRITER "James Litherland" INDEX 00 05:07:28FILE "02 Colosseum - Elegy.wav" WAVE INDEX 01 00:00:00 TRACK 03 AUDIO TITLE "January's Search (The Valentyne Suite) [Live]" SONGWRITER "Dick Heckstall-Smith/Jon Hiseman/Dave Greenslade" INDEX 00 04:19:65FILE "03 Colosseum - January's Search (The Valentyne Suite) [Live].wav" WAVE INDEX 01 00:00:00 TRACK 04 AUDIO TITLE "February's Valentyne (The Valentyne Suite) [Live]" SONGWRITER "Dick Heckstall-Smith/Jon Hiseman/Dave Greenslade" INDEX 00 05:38:42FILE "04 Colosseum - February's Valentyne (The Valentyne Suite) [Live].wav" WAVE INDEX 01 00:00:00 TRACK 05 AUDIO TITLE "The Grass Is Always Greener (The Valentyne Suite) [Live]" SONGWRITER "Dave Greenslade/Jon Hiseman/Dick Heckstall-Smith" INDEX 00 05:16:12FILE "05 Colosseum - The Grass Is Always Greener (The Valentyne Suite) [Live].wav" WAVE INDEX 01 00:00:00 TRACK 06 AUDIO TITLE "Theme For An Imaginary Western" SONGWRITER "Peter Brown/Jack Bruce" INDEX 00 09:49:32FILE "06 Colosseum - Theme For An Imaginary Western.wav" WAVE INDEX 01 00:00:00 TRACK 07 AUDIO TITLE "The Machine Demands A Sacrifice" SONGWRITER "Dick Heckstall-Smith/James Litherland/Jon Hiseman/Peter Brown" INDEX 00 06:42:25FILE "07 Colosseum - The Machine Demands A Sacrifice.wav" WAVE INDEX 01 00:00:00 TRACK 08 AUDIO TITLE "Solo Colonia" SONGWRITER "Jon Hiseman" INDEX 00 02:02:17FILE "08 Colosseum - Solo Colonia.wav" WAVE INDEX 01 00:00:00 TRACK 09 AUDIO TITLE "Lost Angeles" SONGWRITER "Chris Farlowe/Dick Heckstall-Smith/Dave Greenslade" INDEX 00 12:26:25FILE "09 Colosseum - Lost Angeles.wav" WAVE INDEX 01 00:00:00 TRACK 10 AUDIO TITLE "Stormy Monday Blues" SONGWRITER "Aaron "T-Bone" Walker" INDEX 00 13:25:00FILE "10 Colosseum - Stormy Monday Blues.wav" WAVE INDEX 01 00:00:00

Концертный альбом, записанный во время The Reunion Tour 1994.
От других известных вариантов (“Live Cologne 1994”, “Theme for a Reunion”, “The Complete Reunion Concert”) отличается тем,
что открывающая пластинку композиция “Those About to Die ...” и заключительный трек “Stormy Monday Blues” записаны во время Zelt-Musik-Festival -
самого первого выступления воссозданной группы. Произошло это знаковое событие 24/06/1994 в городе Freiburg, Germany.
На других официальных изданиях этих треков, насколько мне известно, нет.
Приятного прослушивания






Трекер:  [ 03-Июл-2012 17:50 ]

  

Скачать .torrent

Размер .torrent файла 20 KB


Размер: 494 MB
Хэш (hash) релиза: 2f9c327009505413e8f32d04ea830c40878c6fbc

Еще никто не оставлял запись к записи скачать торрент Colosseum - LiveS . Будь первым!

!Обратная связь