..."/> ...">

Скачать через торрент [SERIAL] Касл Castle Фильм бесплатно в хорошем качестве torrent

Скачивайте на UnionPeer.org фильмы через торрент без регистрации. Новинки кино в хорошем качестве через торрент. На UnionPeer.org можно скачать через торрент фильмы 2014 и 2015 годов. Самые новые фильмы.

Скачать торрент [SERIAL] Касл Castle бесплатно через .torrent фильм мультфильм сериал

Если у вас наблюдаются проблемы со скриншотами, переходом по ссылками, скачиванием торрентов - проблемы в блокировщике рекламы AdBlock. #хорошегоДня!


Статистика раздачи
Размер:  5.02 GB   |    Зарегистрирован:  5 лет 5 месяцев   |    .torrent скачан:  66 раз   |   
Раздают:  1  
   
Загрузка...
 
Автор Сообщение

Galfimbul

avatar Galfimbul


Касл / Castle
Оригинальное Название: Castle
Год выпуска: 2010
Страна: США
Жанр: драма, криминал, детектив, комедия
Продолжительность: ~43 мин.
Перевод:Профессиональный (многоголосый, закадровый) [NovaFilm]
Режисер:Роб Боуман, Брайан Спайсер, Джон Терлески

В Ролях:
Натан Филлион (Ричард Касл), Молли С. Куинн (Алексис Касл), Симус Девер (Кевин Райан), Джон Уэртас (Хавьер Эспозито), Тэмела Джонс (Лэни Пэриш), Стана Катич (Кейт Беккет).

Описание: Знаменитый нью-йоркский писатель Ричард "Рики" Касл получает личное разрешение от мэра города участвовать в расследованиях убойного отдела, чтобы черпать вдохновение для своих книг из работы детективов и реальной полицейской хроники.
Касл пытается доказать надменному детективу Кейт Беккет, что в расследовании убийств его блестящий ум и умение думать как преступник, еще более полезны, чем его связи с влиятельными людьми и общественное признание.
Вскоре он становится неотъемлемой частью жизни убойного отдела. А дома Касла ждет любимая дочь Алексис и мать - светская львица, Марта.

Релиз:
Над релизом работали:
Перевод: annelee
Редактор: hatifnatten
Озвучка и работа со звуком: студия «Новамедиа»
1. Смертельная Афера / A Deadly Affair
2. Он Мертв, Она Мертва / He's Dead, She's Dead
3. Под Тем Стволом / Under the Gun
4. Панк жив / Punked
5.Анатомия убийства / Anatomy of a Murder
6.Тройной Убийца/ 3XK
7.Почти знаменит / Almost Famous
8.Самое пернатое убийство / Murder Most Fowl
9.Близкие контакты Мертвой степени / lose Encounters of the Murderous Kind
10.Last Call / По Последней
11. Никки Жара / Nikki Heat
12.Бабах! Ты Мертв / Poof! You're Dead
13. Нокдаун / Knockdown
14.Lucky Stiff
15.The Last Nail / Последний Гвоздь
16.Setup / Подготовка
17.Countdown / Обратный Отсчет
18.One Life To Lose / Умираем Только Раз
19. Закон и Убийство / Law & Murder
20.Slice of Death / Кусок Смерти
21.The Dead Pool / Игра в Смерть
22.To Love and Die in L.A. / Любить и Умереть в Лос-Анджелесе
23.Pretty Dead / До Смерти Красива
24.Knockout / Нокаут
Качество: HDTVRip
Формат: MP4
Видео кодек: H.264
Аудио кодек: AAC
Видео: AVC, 480 pixels х 272 pixels, 23.976 fps,512- 608 Kbps, 0.194 bit/pixel
Аудио: 128 Kbps, 48.0 KHz, 2 ch
General
Complete name : H:\сериалы для psp\Castle_3_seazon\castle.s03e01.webdl.rus. СПАМ
Format : MPEG-4
Format profile : Base Media
Codec ID : isom
File size : 231 MiB
Duration : 43mn 42s
Overall bit rate : 740 Kbps
Encoded date : UTC 2010-10-17 16:43:06
Tagged date : UTC 2010-10-17 16:43:06

Video
ID : 1
Format : AVC
Format/Info : Advanced Video Codec
Format profile : <a href="mailto:Main@L3.0" class="postLink">Main@L3.0</a>
Format settings, CABAC : Yes
Format settings, ReFrames : 3 frames
Codec ID : avc1
Codec ID/Info : Advanced Video Coding
Duration : 43mn 42s
Bit rate mode : Variable
Bit rate : 608 Kbps
Maximum bit rate : 3 303 Kbps
Width : 480 pixels
Height : 272 pixels
Display aspect ratio : 16:9
Frame rate mode : Constant
Frame rate : 23.976 fps
Color space : YUV
Chroma subsampling : 4:2:0
Bit depth : 8 bits
Scan type : Progressive
Bits/(Pixel*Frame) : 0.194
Stream size : 190 MiB (82%)
Title : Imported with GPAC 0.4.6-DEV (build 1)
Writing library : x264 core 92 r1510 33d382a
Encoding settings : cabac=1 / ref=3 / deblock=1:-1:0 / analyse=0x1:0x131 / me=umh / subme=7 / psy=1 / psy_rd=1.00:0.20 / mixed_ref=1 / me_range=16 / chroma_me=1 / trellis=2 / 8x8dct=0 / cqm=0 / deadzone=21,11 / fast_pskip=0 / chroma_qp_offset=-3 / threads=3 / sliced_threads=0 / nr=0 / decimate=0 / interlaced=0 / constrained_intra=0 / bframes=3 / b_pyramid=0 / b_adapt=2 / b_bias=0 / direct=3 / wpredb=1 / wpredp=2 / keyint=250 / keyint_min=25 / scenecut=40 / intra_refresh=0 / rc_lookahead=60 / rc=2pass / mbtree=1 / bitrate=608 / ratetol=1.0 / qcomp=0.60 / qpmin=10 / qpmax=51 / qpstep=4 / cplxblur=20.0 / qblur=0.5 / ip_ratio=1.40 / aq=1:1.00
Encoded date : UTC 2010-10-17 16:43:06
Tagged date : UTC 2010-10-17 16:43:22

Audio
ID : 2
Format : AAC
Format/Info : Advanced Audio Codec
Format version : Version 4
Format profile : LC
Format settings, SBR : No
Codec ID : 40
Duration : 43mn 42s
Bit rate mode : Variable
Bit rate : 128 Kbps
Maximum bit rate : 156 Kbps
Channel(s) : 2 channels
Channel positions : Front: L R
Sampling rate : 48.0 KHz
Stream size : 39.9 MiB (17%)
Encoded date : UTC 2010-10-17 16:43:20
Tagged date : UTC 2010-10-17 16:43:22


Трекер:  [ 14-Июл-2012 13:49 ]

  

Скачать .torrent

Размер .torrent файла 28 KB


Размер: 5.02 GB
Хэш (hash) релиза: 84e9115daffe6714cd0fc285462b191d1b384a78
Подписка на обновления:

Еще никто не оставлял запись к записи скачать торрент [SERIAL] Касл Castle . Будь первым!

!Обратная связь