Скачать через торрент музыку Jerry Garcia Band бесплатно без регистрации torrent

Если у вас наблюдаются проблемы со скриншотами, переходом по ссылками, скачиванием торрентов - проблемы в блокировщике рекламы AdBlock. #хорошегоДня!


Статистика раздачи
Размер:  332 MB   |    Зарегистрирован:  5 лет 3 месяца   |    .torrent скачан:  12 раз   |   
Раздают:  1  
   
Загрузка...
 
Автор Сообщение

Galfimbul

avatar Galfimbul


Jerry Garcia Band (project guitarist’s Grateful Dead)
Way After Midnight (Bonus CD)

Жанр: Hard Rock / Country / Folk Rock / Blues Rock / Страна-производитель диска: U.S.A.
Год издания: 2004 / Издатель (лейбл): Jerry Garcia Estate LLC.
Номер по каталогу: JGBWAM-01 / Страна: San Francisco, California, U.S.
Аудиокодек: FLAC (*.flac) / Тип рипа: image+.cue
Битрейт аудио: lossless / Продолжительность: 01:01:47
Источник (релизер): I Am / Наличие сканов в содержимом раздачи: Front & Back
After Midnight: Kean College, 2/28/80 is a live album by the Jerry Garcia Band. It was recorded in Union Township, Union County, New Jersey at Kean College on February 28, 1980 and released in 2004.
Some copies of After Midnight included a bonus disc, Way After Midnight, with tracks recorded on February 29 at Calderone Concert Hall in Hempstead, New York and on March 1 at the Capitol Theater in Passaic, New Jersey.
Треклист:
01. Dear Prudence (Lennon / McCartney) [Hempstead, February 29, 1980] - 10:30
02. When I Paint My Masterpiece (Dylan) [Hempstead, February 29, 1980] - 11:35
03. Russian Lullaby (Berlin) [Hempstead, February 29, 1980] - 15:36
04. That's All Right, Mama (Crudup) [Passaic, March 1, 1980] - 07:42
05. Deal (Garcia / Hunter) [Hempstead, February 29, 1980] - 09:20
Exact Audio Copy V1.0 beta 3 from 29. August 2011

Отчёт EAC об извлечении, выполненном 19. августа 2012, 12:31

Jerry Garcia Band / Way After Midnight (Bonus CD)

Дисковод: ATAPI iHAP122 9 Adapter: 0 ID: 1

Режим чтения : ДостоверностьИспользование точного потока : ДаОтключение кэша аудио : ДаИспользование указателей C2 : Нет

Коррекция смещения при чтении : 6Способность читать области Lead-in и Lead-out : НетЗаполнение пропущенных сэмплов тишиной : ДаУдаление блоков с тишиной в начале и конце : НетПри вычислениях CRC использовались нулевые сэмплы : ДаИнтерфейс : Установленный внешний ASPI-интерфейс

Выходной формат : Внутренние WAV-операцииФормат сэмплов : 44.100 Гц; 16 бит; стерео

TOC извлечённого CD

Трек | Старт | Длительность | Начальный сектор | Конечный сектор --------------------------------------------------------------------- 1 | 0:00.00 | 10:30.13 | 0 | 47262 2 | 10:30.13 | 11:35.06 | 47263 | 99393 3 | 22:05.19 | 15:35.37 | 99394 | 169555 4 | 37:40.56 | 7:41.36 | 169556 | 204166 5 | 45:22.17 | 9:20.47 | 204167 | 246213

Характеристики диапазона извлечения и сообщения об ошибках

Выбранный диапазон

Имя файла D:\Запись\Jerry Garcia Band - Way After Midnight (Bonus CD)\Jerry Garcia Band - Way After Midnight (Bonus CD).wav

Пиковый уровень 95.5 % Скорость извлечения 7.4 X Качество диапазона 99.9 % CRC теста 7AF17C3F CRC копии 7AF17C3F Копирование... OK

Ошибок не произошло

AccurateRip: сводка

Трек 1 точность не определена (достоверность 9) [76F13E57], AccurateRip вернул [665AEC59] (AR v2)Трек 2 точность не определена (достоверность 9) [0843B3C0], AccurateRip вернул [9EF393B9] (AR v2)Трек 3 точность не определена (достоверность 9) [B288C4F4], AccurateRip вернул [0CAC608B] (AR v2)Трек 4 точность не определена (достоверность 9) [C682ABDA], AccurateRip вернул [7C416AA9] (AR v2)Трек 5 точность не определена (достоверность 8) [C5679EEE], AccurateRip вернул [6A00F960] (AR v2)

Ни один трек не прошёл проверки на точностьВ вашей базе может быть иной вариант штамповки диска

Конец отчёта

==== Контрольная сумма отчёта 034CE0A01A8352007CB1FA8371523F6761B78088AF216ACADB6491DF031BD635 ====
AUDIOCHECKER v2.0 beta (build 457) - by Dester - <a href="mailto:opdester@freemail.hu" class="postLink">opdester@freemail.hu</a>~~~~~~~~~~~~~~~~~~~~~~~~~~~~~~~~~~

Started at: воскресенье, 19. 08. 2012. - 12:36.081 file found

1 -===- D:\Запись\Jerry Garcia Band - Way After Midnight (Bonus CD)\Jerry Garcia Band - Way After Midnight (Bonus CD).flac Extracted successfully Conclusion: this track is CDDA with probability 100% Tempfile successfully deleted.

Finished at: воскресенье, 19. 08. 2012. - 12:40.05 (operation time: 0:03.57)


Jerry Garcia - guitar, vocals
Ozzie Ahlers - keyboards, vocals
John Kahn - bass
Johnny De Foncesca - drums


Трекер:  [ 27-Авг-2012 17:00 ]

  

Скачать .torrent

Размер .torrent файла 14 KB


Размер: 332 MB
Хэш (hash) релиза: f95c5a9c963c66eb5bab1da064303b474473ea7f

Торренты, похожие на Jerry Garcia Band скачать торрент

Форум Название Автор Размер S L Добавлен
Зарубежный Rock ·· (Folk-Rock, Country, Psychedelic rock) Jerry Garcia (Jerry Garcia Band, Legion Of Mary, Old And In The Way) - Коллекция 1971-2012 (& Howard Wales, Merl Saunders, John Kahn, Bill Vitt, David Grisman, Tony Rice, 36 релизов), MP3, 192-320 kbps Galfimbul 103208978869.61 GB 0 0 1352120640

16:04

5-Ноя-12

Rосk | Mеtаl | Аltеrnаtivе, Рunk, Indереndеnt (mр3) ·· (Country Rock) Jerry Garcia Band - Garcia Live Vol. 2: August 5th 1990, Greek Theatre 2CD - 2013, MP3, 320 kbps Galfimbul 286925449274 MB 0 0 1372278619

23:30

26-Июн-13

Зарубежный Rock ·· (Hard Rock / Country / Folk Rock / Blues Rock) Jerry Garcia Band (project guitarist’s Grateful Dead) - Shining Star (Recorded Live 1983 - 1989) [2 CD] - 2001, FLAC (image+.cue), lossless _N_ 926944389884 MB 0 0 1346354340

22:19

30-Авг-12

Зарубежный Rock ·· (Hard Rock / Country / Folk Rock / Blues Rock) Jerry Garcia Band (project guitarist’s Grateful Dead) - After Midnight (Kean College, 2/28/80) [3 CD] - 2004, FLAC (image+.cue), lossless Galfimbul 11025900791.03 GB 0 0 1346076060

17:01

27-Авг-12

Rосk | Mеtаl | Аltеrnаtivе, Рunk, Indереndеnt (mр3) ·· (Psychedelic Folk-Rock, Pop-Rock)Jerry Garcia Band - Cats Under The Stars 1978 (2005 Rhino R279507), MP3, 320 kbps _N_ 177781484170 MB 0 0 1335008220

14:37

21-Апр-12

Rосk | Mеtаl | Аltеrnаtivе, Рunk, Indереndеnt (losslеss) ·· (Folk Rock, Country, Blues) Jerry Garcia Acoustic Band - Almost Acoustic - 1988 (GDM GDCD4005), FLAC (tracks+.cue), lossless _N_ 443476845423 MB 0 0 1329320426

18:40

15-Фев-12

Еще никто не оставлял запись к записи скачать торрент Jerry Garcia Band . Будь первым!

!Обратная связь