Скачать через торрент Говорю же, у меня не встаёт! Dakara Boku wa, H ga Dekinai! бесплатно Аниме Все серии на русском torrent

Если у вас наблюдаются проблемы со скриншотами, переходом по ссылками, скачиванием торрентов - проблемы в блокировщике рекламы AdBlock. #хорошегоДня!


Статистика раздачи
Размер:  2.42 GB   |    Зарегистрирован:  5 лет 3 месяца   |    .torrent скачан:  84 раза   |   
Раздают:  1  
   
Загрузка...
 
Автор Сообщение

Galfimbul

avatar Galfimbul


Говорю же, у меня не встаёт! / Dakara Boku wa, H ga Dekinai! / So, I Can`t Play H!

Страна: Япония
Год выпуска: 2012 г.
Жанр: комедия, этти, приключения
Тип: TV
Продолжительность: >12 эп, ~25 мин. серия
Режиссер: Такахаси Такэо
Студия: feel.

Описание: Сюжет достаточно прост: парень пытается вернуть свой "эротический дух", который он потерял после сделки с красивой девушкой и по совместительству Богини Смерти - Рисарой. Жизнь у него суровая, хоть и живёт с красоткой: созерцание девушек больше не радует его глаз!

Качество: HDTVRip
Тип релиза: Без хардсаба
Формат видео: MKV
Совместимость с бытовыми плеерами: нет
Видео: H.264; 1280x720; ~1800Kbps, 23.976fps;
Аудио: MPEG Audio; 44100Hz; 128Kbps (2ch); Язык Русский (в составе контейнера) ; Озвучка: одноголосая (OVERLORDS)
Duration : 24mn 0sOverall bit rate : 1 900 KbpsEncoded date : UTC 2012-07-07 17:08:39Writing application : mkvmerge v4.9.1 ('Ich will') сборка от Jul 11 2011 23:53:15Writing library : libebml v1.2.1 + libmatroska v1.1.1Attachment : Yes / Yes / Yes / Yes / Yes / Yes / Yes / Yes / Yes / Yes / Yes / Yes / Yes / Yes / Yes / Yes / Yes / Yes / Yes / Yes

VideoID : 1Format : AVCFormat/Info : Advanced Video CodecFormat profile : <a href="mailto:High@L4.0Format" class="postLink">High@L4.0Format</a> settings, CABAC : YesFormat settings, ReFrames : 3 framesMuxing mode : Header strippingCodec ID : V_MPEG4/ISO/AVCDuration : 24mn 0sBit rate : 1 766 KbpsWidth : 1 280 pixelsHeight : 720 pixelsDisplay aspect ratio : 16:9Frame rate : 23.976 fpsColor space : YUVChroma subsampling : 4:2:0Bit depth : 8 bitsScan type : ProgressiveBits/(Pixel*Frame) : 0.080Stream size : 303 MiB (93%)Title : AVC 8bitWriting library : x264 core 75 r1246 5b3c89cEncoding settings : cabac=1 / ref=3 / deblock=1:-2:-2 / analyse=0x3:0x133 / me=umh / subme=9 / psy=1 / psy_rd=0.5:0.0 / mixed_ref=1 / me_range=32 / chroma_me=1 / trellis=2 / 8x8dct=1 / cqm=0 / deadzone=21,11 / chroma_qp_offset=-2 / threads=3 / nr=0 / decimate=1 / mbaff=0 / bframes=2 / b_pyramid=0 / b_adapt=2 / b_bias=0 / direct=3 / wpredb=1 / keyint=240 / keyint_min=1 / scenecut=40 / rc_lookahead=36 / rc=crf / mbtree=1 / crf=20.0 / qcomp=0.60 / qpmin=10 / qpmax=51 / qpstep=8 / ip_ratio=1.40 / aq=1:1.00Language : JapaneseDefault : YesForced : Yes

AudioID : 2Format : MPEG AudioFormat version : Version 2Format profile : Layer 3Mode : Joint stereoMode extension : Intensity Stereo + MS StereoMuxing mode : Header strippingCodec ID : A_MPEG/L3Codec ID/Hint : MP3Duration : 24mn 0sBit rate mode : ConstantBit rate : 128.0 KbpsChannel(s) : 2 channelsSampling rate : 44.1 KHzCompression mode : LossyStream size : 21.5 MiB (7%)Default : YesForced : No
01.Red String of Fate!?
02.Ero is Good for the Eyes
03.Dangerous Idol
04.Bust Circumference Disparate Society
05.Invisible Dictionary
06.We Became One
07.I Want to Let Her Live


Трекер:  [ 31-Авг-2012 11:23 ]

  

Скачать .torrent

Размер .torrent файла 13 KB


Размер: 2.42 GB
Хэш (hash) релиза: 89c29d9a63c287d38dbcdf5b76855c9af54d7de3
Подписка на обновления:

Торренты, похожие на Говорю же, у меня не встаёт! Dakara Boku wa, H ga Dekinai! скачать торрент

Форум Название Автор Размер S L Добавлен
Манга ·· Татибана Пан / Tachibana Pan - Говорю же, у меня не встаёт! / Dakara Boku wa, H ga Dekinai. / So, I Can't Play H! [manga] [1-7] [2012 г., комедия, мистика, романтика, этти] [incomplete] Galfimbul 8940702685 MB 0 0 1345879920

10:32

25-Авг-12

Еще никто не оставлял запись к записи скачать торрент Говорю же, у меня не встаёт! Dakara Boku wa, H ga Dekinai! . Будь первым!

!Обратная связь