Скачать через торрент музыку Andy Timmons Band - Plays Sgt. Pepper бесплатно без регистрации torrent

Если у вас наблюдаются проблемы со скриншотами, переходом по ссылками, скачиванием торрентов - проблемы в блокировщике рекламы AdBlock. #хорошегоДня!


Статистика раздачи
Размер:  339 MB   |    Зарегистрирован:  5 лет 3 месяца   |    .torrent скачан:  24 раза   |   
Раздают:  1  
   
Загрузка...
 
Автор Сообщение

_N_

avatar _N_


Andy Timmons Band / Plays Sgt. Pepper (Japan FN2760-2)

Жанр: Rock
Страна-производитель диска: Japan
Год издания: 2011
Издатель (лейбл): Timstone Records
Номер по каталогу: FN2760-2
Страна: USA
Аудиокодек: FLAC (*.flac)
Тип рипа: image+.cue
Битрейт аудио: lossless
Продолжительность: 00:50:47
Источник (релизер): guzonka
Наличие сканов в содержимом раздачи: да
Треклист:
01. Sgt. Pepper's Lonely Hearts Club Band [0:02:06.55]
02. With a Little Help From My Friends [0:02:56.13]
03. Lucy In the Sky With Diamonds [0:04:36.24]
04. Getting Better [0:02:59.73]
05. Fixing A Hole [0:02:54.24]
06. She's Leaving Home [0:03:53.71]
07. Being For the Benefit of Mr. Kite! [0:06:26.37]
08. Within You Without You [0:04:45.40]
09. When I'm Sixty-Four [0:02:42.31]
10. Lovely Rita [0:02:33.50]
11. Good Morning Good Morning [0:03:00.69]
12. Sgt. Pepper's Lonely Hearts Club Band (Reprise) [0:01:20.19]
13. A Day In The Life [0:05:15.37]
14. Strawberry Fields Forever [0:05:15.01]
Exact Audio Copy V1.0 beta 3 from 29. August 2011

Отчёт EAC об извлечении, выполненном 11. августа 2012, 19:29

Andy Timmons Band / Plays Sgt. Pepper

Дисковод: PIONEER DVD-RW DVR-219L Adapter: 0 ID: 0

Режим чтения : ДостоверностьИспользование точного потока : ДаОтключение кэша аудио : ДаИспользование указателей C2 : Нет

Коррекция смещения при чтении : 6Способность читать области Lead-in и Lead-out : НетЗаполнение пропущенных сэмплов тишиной : ДаУдаление блоков с тишиной в начале и конце : НетПри вычислениях CRC использовались нулевые сэмплы : ДаИнтерфейс : Встроенный Win32-интерфейс для Win NT/2000

Выходной формат : Пользовательский кодировщикВыбранный битрейт : 640 kBit/sКачество : ВысокийДобавление ID3-тега : НетУтилита сжатия : C:\Program Files (x86)\Exact Audio Copy\Flac\flac.exeДополнительные параметры : -V -8 -T "Date=%year%" -T "Genre=%genre%" %source%

TOC извлечённого CD

Трек | Старт | Длительность | Начальный сектор | Конечный сектор --------------------------------------------------------------------- 1 | 0:00.00 | 2:06.55 | 0 | 9504 2 | 2:06.55 | 2:56.13 | 9505 | 22717 3 | 5:02.68 | 4:36.24 | 22718 | 43441 4 | 9:39.17 | 2:59.73 | 43442 | 56939 5 | 12:39.15 | 2:54.24 | 56940 | 70013 6 | 15:33.39 | 3:53.71 | 70014 | 87559 7 | 19:27.35 | 6:26.37 | 87560 | 116546 8 | 25:53.72 | 4:45.40 | 116547 | 137961 9 | 30:39.37 | 2:42.31 | 137962 | 150142 10 | 33:21.68 | 2:33.50 | 150143 | 161667 11 | 35:55.43 | 3:00.69 | 161668 | 175236 12 | 38:56.37 | 1:20.19 | 175237 | 181255 13 | 40:16.56 | 5:15.37 | 181256 | 204917 14 | 45:32.18 | 5:15.01 | 204918 | 228543

Характеристики диапазона извлечения и сообщения об ошибках

Выбранный диапазон

Имя файла E:\dvda\Andy Timmons Band - Plays Sgt. Pepper.wav

Пиковый уровень 100.0 % Скорость извлечения 1.6 X Качество диапазона 100.0 % CRC теста F99B6B72 CRC копии F99B6B72 Копирование... OK

Ошибок не произошло

Конец отчёта

==== Контрольная сумма отчёта 0DA955E13732D63B3845A96F5D1D9D67643C72DF4536E1F00A2E9164FC8824AD ====


Трекер:  [ 30-Авг-2012 22:14 ]

  

Скачать .torrent

Размер .torrent файла 14 KB


Размер: 339 MB
Хэш (hash) релиза: 07e897189424bee51948229ee6e3878eaf95810d

Торренты, похожие на Andy Timmons Band - Plays Sgt. Pepper скачать торрент

Форум Название Автор Размер S L Добавлен
Rосk | Mеtаl | Аltеrnаtivе, Рunk, Indереndеnt (mр3) ·· (Instrumental Rock / Hard Rock) Andy Timmons Band - Plays Sgt. Pepper - 2011, MP3 (tracks), 320 kbps Galfimbul 123355570118 MB 0 0 1320772552

20:15

8-Ноя-11

Еще никто не оставлял запись к записи скачать торрент Andy Timmons Band - Plays Sgt. Pepper . Будь первым!

!Обратная связь