Скачать через торрент музыку T2k - Remote Transmissions - 2011, FLAC бесплатно без регистрации torrent

Если у вас наблюдаются проблемы со скриншотами, переходом по ссылками, скачиванием торрентов - проблемы в блокировщике рекламы AdBlock. #хорошегоДня!


Статистика раздачи
Размер:  483 MB   |    Зарегистрирован:  5 лет 3 месяца   |    .torrent скачан:  16 раз   |   
Раздают:  1  
   
Загрузка...
 
Автор Сообщение

Galfimbul

avatar Galfimbul


T2k / Remote Transmissions

Жанр: Psychedelic / Space / Progressive Rock
Страна-производитель диска: USA
Год издания: 2011
Издатель (лейбл): barking monkey records
Страна: USA
Аудиокодек: FLAC (*.flac)
Тип рипа: image+.cue
Битрейт аудио: lossless
Продолжительность: 01:11:53
Источник (релизер): собственный диск
Наличие сканов в содержимом раздачи: да
Треклист:
1. walmart manu
2. evil X
3. noctilucent
4. happy robot
5. mtb disaster
6. eyes horizon
7. 59
8. 5 star linen
Exact Audio Copy V0.99 prebeta 5 from 4. May 2009

Отчёт EAC об извлечении, выполненном 4. сентября 2012, 0:46

T2k / Remote Transmissions

Дисковод: ASUS DRW-24B3ST Adapter: 1 ID: 0

Режим чтения : ДостоверностьИспользование точного потока : ДаОтключение кэша аудио : ДаИспользование указателей C2 : Нет

Коррекция смещения при чтении : 6Способность читать области Lead-in и Lead-out : НетЗаполнение пропущенных сэмплов тишиной : ДаУдаление блоков с тишиной в начале и конце : НетПри вычислениях CRC использовались нулевые сэмплы : ДаИнтерфейс : Встроенный Win32-интерфейс для Win NT/2000

Выходной формат : Внутренние WAV-операцииФормат сэмплов : 44.100 Гц; 16 бит; стерео

TOC извлечённого CD

Трек | Старт | Длительность | Начальный сектор | Конечный сектор --------------------------------------------------------------------- 1 | 0:00.00 | 14:02.57 | 0 | 63206 2 | 14:02.57 | 8:39.28 | 63207 | 102159 3 | 22:42.10 | 3:23.00 | 102160 | 117384 4 | 26:05.10 | 7:14.25 | 117385 | 149959 5 | 33:19.35 | 10:28.18 | 149960 | 197077 6 | 43:47.53 | 3:10.70 | 197078 | 211397 7 | 46:58.48 | 12:19.00 | 211398 | 266822 8 | 59:17.48 | 12:35.42 | 266823 | 323489

Характеристики диапазона извлечения и сообщения об ошибках

Выбранный диапазон

Имя файла E:\T2k - Remote Transmissions.wav

Пиковый уровень 99.5 % Качество диапазона 99.9 % CRC теста BB6733C7 CRC копии BB6733C7 Копирование... OK

Ошибок не произошло

AccurateRip: сводка

Трек 1 нет в базе данныхТрек 2 нет в базе данныхТрек 3 нет в базе данныхТрек 4 нет в базе данныхТрек 5 нет в базе данныхТрек 6 нет в базе данныхТрек 7 нет в базе данныхТрек 8 нет в базе данных

Ни одного трека нет в базе AccurateRip

Конец отчёта
REM GENRE "Progressive Rock"REM DATE 2011REM DISCID 6B10D908REM COMMENT "ExactAudioCopy v0.99pb5"PERFORMER "T2k"TITLE "Remote Transmissions"FILE "T2k - Remote Transmissions.flac" WAVE TRACK 01 AUDIO TITLE "walmart manu" PERFORMER "T2k" INDEX 01 00:00:00 TRACK 02 AUDIO TITLE "evil X" PERFORMER "T2k" INDEX 01 14:02:57 TRACK 03 AUDIO TITLE "noctilucent" PERFORMER "T2k" INDEX 01 22:42:10 TRACK 04 AUDIO TITLE "happy robot" PERFORMER "T2k" INDEX 01 26:05:10 TRACK 05 AUDIO TITLE "mtb disaster" PERFORMER "T2k" INDEX 01 33:19:35 TRACK 06 AUDIO TITLE "eyes horizon" PERFORMER "T2k" INDEX 01 43:47:53 TRACK 07 AUDIO TITLE "59" PERFORMER "T2k" INDEX 01 46:58:48 TRACK 08 AUDIO TITLE "5 star linen" PERFORMER "T2k" INDEX 01 59:17:48
Started at: aoi?iee, 04. 09. 2012. - 0:48.431 file found

1 -===- E:\T2k - Remote Transmissions\T2k - Remote Transmissions.flac Conclusion: this track is CDDA with probability 100%

Finished at: aoi?iee, 04. 09. 2012. - 0:50.55 (operation time: 0:02.11)
Доп. информация: A zany guitarist in Colorado and a crazy drummer and bassist in Connecticut collaborate though cyber space to bring you ambient, experimental, extraterrestrial, progressive space rock!

Official Site
Friends and bandmates for years, KevG and StKevin began jamming out Wednesday evening "lab experiments" in StKevin's Connecticut basement to hone their skills and explore new territory on a newly purchased Warr Guitar and Roland V-drums.

In between those sessions, KevG met guitarist Timmy from Colorado while contributing to someone else's project on a internet music collaboration site. They shared many influences, admired each other's style and formed an instant musical bond.

Soon, they both ditched the project they were collaborating on and began working as a trio through cyber space on the Wednesday night "labs". The three of them were a perfect fit and much tuneage flowed to their digital audio workstations and beyond.

t2k were never in the same studio together during the recording of their debut album 'remote transmissions'. All sound files were passed back and forth via the internets from Connecticut to Colorado (and, vice versa) during 2009/2010 and then assembled, mixed and mastered by Timmy C Pitschka at Meadow View Studios in Nederland, Colorado. Technology is cool!
Kevin Gerety - 8 string fretless Warr Guitar and fretless basses
Kevin StClair - Roland V-drums
Timmy C Pitschka - 6 & 7 string guitars and piano


Трекер:  [ 06-Сен-2012 21:01 ]

  

Скачать .torrent

Размер .torrent файла 152 KB


Размер: 483 MB
Хэш (hash) релиза: 5d7bf7fcff0cd8067936858fa15853d28b552aec

Еще никто не оставлял запись к записи скачать торрент T2k - Remote Transmissions - 2011, FLAC . Будь первым!

!Обратная связь