Скачать через торрент Любовь, выборы и шоколад Koi to Senkyo to Chocolate бесплатно Аниме Все серии на русском torrent

Если у вас наблюдаются проблемы со скриншотами, переходом по ссылками, скачиванием торрентов - проблемы в блокировщике рекламы AdBlock. #хорошегоДня!


Статистика раздачи
Размер:  2.44 GB   |    Зарегистрирован:  5 лет 2 месяца   |    .torrent скачан:  47 раз   |   
Раздают:  1  
   
Загрузка...
 
Автор Сообщение

Galfimbul

avatar Galfimbul


Любовь, выборы и шоколад / Koi to Senkyo to Chocolate

Страна: Япония
Год выпуска: 2012 г.
Жанр: комедия, романтика, школа
Тип: TV
Продолжительность: 12 эп., 25 мин.
Режиссер: Китахата Тору
Студия: AIC

Описание: В престижной частной школе Такафудзи кипят совсем не детские страсти! Борьба за власть и влияние среди отпрысков небедных семей привела к первым жертвам, про многих лидеров Совета поползли темные слухи, и потому назначены новые выборы. Главным претендентом на пост президента Школьного совета является действующий казначей Сацуки Синономэ, которую даже недоброжелатели считают честным и справедливым человеком. У красавицы Синономэ один недостаток – она сторонник экономии и заявляет, что бюджет школы хоть и велик, но не резиновый, а потому сразу после ее избрания будут сокращены «ненужные» клубы, нацеленные лишь на развлечение. Увы, на первом месте в списке – клуб изучения сладостей, в котором состоят главные герои сериала!

Члены упомянутого клуба действительно собираются вместе, пробуют различные конфеты и кондитерские изделия, ставят им оценки и мило общаются между собой. Да, не очень продуктивно, но чем это хуже икэбаны или чайной церемонии? Потому на экстренном собрании было принято решение бороться за существование самым простым способом – выставив на выборы собственного кандидата. Им стал Юки Одзима – парень видный и решительный, друг детства президента клуба Тисато Сумиёси. Юки, конечно, подумал, прежде чем согласиться, но если бы бедняга знал, в какой скорпионий клубок собирается влезть, он бы думал куда дольше! Впрочем, в ситуации есть и плюсы: во-первых, только беда проявляет истинную сущность людей, а во-вторых – давно доказано, что в стрессовых ситуациях полезен именно шоколад!

© Hollow, World Art

Качество: HDTVRip
Тип релиза: Без хардсаба
Формат видео: MP4
Наличие линковки: Нет
Релиз/Автор рипа: 1-2 [Silent-Raws], 3-9 [바카-Raws]
Видео: AVC, 1280*720px, ~1200 Kbps, 23.976 fps
Аудио: AAC, 256 kbps, 48kHz, 2ch Язык Японский
Аудио 2: MP3, 256 kbps, 44.1 kHz, 2ch Язык Русский (внешним файлом) - LankaPJ & taylor1102 & Rain77
Субтитры: ASS Язык субтитров русский ; Перевод: AOS
Субтитры 2: ASS Язык субтитров русский ; Перевод 2: YakuSub

Сэмпл здесь (в сэмпле вшита только русская озвучка, японской нет)
Равки с TBS с цензурой будут заменены на равки с AT-X (без цензуры) по мере выхода последних.
Complete name : G:\anime\Koi to Senkyo to Chocolate\Koi to Senkyo to Chocolate #01 (AT-X 1280x720 x264 AAC).mp4Format : MPEG-4Format profile : Base MediaCodec ID : isomFile size : 270 MiBDuration : 24mn 30sOverall bit rate mode : VariableOverall bit rate : 1 538 KbpsEncoded date : UTC 2012-08-16 13:02:05Tagged date : UTC 2012-08-16 13:02:05Writing application : Yamb 2.1.0.0 []http://yamb.unite-video.com]Comment : 一部規制が解除されてるようです。

VideoID : 1Format : AVCFormat/Info : Advanced Video CodecFormat profile : <a href="mailto:High@L4.1Format" class="postLink">High@L4.1Format</a> settings, CABAC : YesFormat settings, ReFrames : 3 framesCodec ID : avc1Codec ID/Info : Advanced Video CodingDuration : 24mn 30sBit rate : 1 363 KbpsMaximum bit rate : 11.0 MbpsWidth : 1 280 pixelsHeight : 720 pixelsDisplay aspect ratio : 16:9Frame rate mode : VariableFrame rate : 28.608 fpsOriginal frame rate : 29.970 fpsMinimum frame rate : 19.980 fpsMaximum frame rate : 119.880 fpsStandard : NTSCColor space : YUVChroma subsampling : 4:2:0Bit depth : 8 bitsScan type : ProgressiveBits/(Pixel*Frame) : 0.052Stream size : 239 MiB (89%)Writing library : x264 core 79 r1332+28 0d0d675Encoding settings : cabac=1 / ref=3 / deblock=1:-2:-2 / analyse=0x3:0x113 / me=umh / subme=8 / psy=1 / psy_rd=0.5:0.0 / mixed_ref=1 / me_range=32 / chroma_me=1 / trellis=2 / 8x8dct=1 / cqm=0 / deadzone=21,11 / chroma_qp_offset=-2 / threads=6 / nr=0 / decimate=1 / mbaff=0 / constrained_intra=0 / bframes=2 / b_pyramid=0 / b_adapt=2 / b_bias=0 / direct=1 / wpredb=1 / wpredp=2 / keyint=240 / keyint_min=25 / scenecut=40 / rc_lookahead=36 / rc=crf / mbtree=1 / crf=19.0 / qcomp=0.60 / qpmin=10 / qpmax=51 / qpstep=8 / ip_ratio=1.40 / aq=1:1.00Encoded date : UTC 2012-08-16 11:23:34Tagged date : UTC 2012-08-16 13:02:06

AudioID : 2Format : AACFormat/Info : Advanced Audio CodecFormat profile : LCCodec ID : 40Duration : 24mn 30sBit rate mode : VariableBit rate : 171 KbpsMaximum bit rate : 221 KbpsChannel(s) : 2 channelsChannel positions : Front: L RSampling rate : 48.0 KHzCompression mode : LossyStream size : 30.0 MiB (11%)Encoded date : UTC 2012-08-16 13:02:05Tagged date : UTC 2012-08-16 13:02:06
1. Disbanded!
2. Candidacy!
3. Strategy!
4. Funding!
5. Festival!
6. Results!
7. Camp!
8. Truth!
9. Accident!


Трекер:  [ 23-Сен-2012 10:31 ]

  

Скачать .torrent

Размер .torrent файла 16 KB


Размер: 2.44 GB
Хэш (hash) релиза: 31e6306af468b98193658085d0b001ed3bbae05e
Подписка на обновления:

Торренты, похожие на Любовь, выборы и шоколад Koi to Senkyo to Chocolate скачать торрент

Форум Название Автор Размер S L Добавлен
Аниме | HD Rips ·· Любовь, выборы и шоколад / Koi to Senkyo to Chocolate / Love, Elections, & Chocolate (Китахата Тору) [TV+Special] [12+1 из 12+1] [Без хардсаба] [RUS(ext), JAP+SUB] [2012 г., комедия, романтика, BDRemux] [1080p] Galfimbul 8349926307477.76 GB 0 0 1414838162

13:36

1-Ноя-14

Аниме | Blu-Ray и BDRemux ·· Любовь, выборы и шоколад / Koi to Senkyo to Chocolate (Китахата Тору) [TV+Special] [12+1 из 12+1] [без хардсаба] [RUS(int), JAP+SUB] [2012 г., комедия, романтика, BDRemux] [1080p] L 8630937749680.38 GB 0 0 1370184107

17:41

2-Июн-13

Аниме | HD Rips ·· Любовь, выборы и шоколад / Koi to Senkyo to Chocolate (Китахата Тору) [TV+Special] [12+0 из 12+1] [без хардсаба] [RUS(ext), JAP+SUB] [2012 г., комедия, романтика, BDRip] [1080p] L 2019788566818.81 GB 0 0 1365799635

23:47

12-Апр-13

Аниме | HD Rips ·· Любовь, выборы и шоколад / Koi to Senkyo to Chocolate (Китахата Тору) [TV+Special] [12+0 из 12+1] [без хардсаба] [RUS(ext), JAP+SUB] [2012 г., комедия, романтика, BDRip] [720p] Galfimbul 68357288766.37 GB 0 0 1365454331

23:52

8-Апр-13

Аниме | HD Rips ·· Любовь, выборы и шоколад / Koi to Senkyo to Chocolate (Китахата Тору) [TV] [3 из 12] [без хардсаба] [RUS(ext), JAP+SUB] [2012 г., комедия, романтика, BDRip] [1080p] Polarnik 57617910275.37 GB 0 0 1354546920

18:02

3-Дек-12

Еще никто не оставлял запись к записи скачать торрент Любовь, выборы и шоколад Koi to Senkyo to Chocolate . Будь первым!

!Обратная связь