Скачать через торрент музыку VA - Re-Machined A Tribute To Deep Purples Machine Head бесплатно без регистрации torrent

Если у вас наблюдаются проблемы со скриншотами, переходом по ссылками, скачиванием торрентов - проблемы в блокировщике рекламы AdBlock. #хорошегоДня!


Статистика раздачи
Размер:  491 MB   |    Зарегистрирован:  5 лет 2 месяца   |    .torrent скачан:  54 раза   |   
Раздают:  1  
   
Загрузка...
 
Автор Сообщение

Galfimbul

avatar Galfimbul


Re-Machined A Tribute To Deep Purple's Machine Head (Classic Rock Collector's Edition, Limited Edition)

Жанр: Classic Rock, Hard Rock, Heavy Metal
Страна-производитель диска: EU
Год издания: 2012
Издатель (лейбл): Eagle Records, Classic Rock
Номер по каталогу: CRP12-09-12, 9781858705781
Аудиокодек: FLAC (*.flac)
Тип рипа: image+.cue
Битрейт аудио: lossless
Продолжительность: 00:52:27
Источник (релизер): Собственный
Наличие сканов в содержимом раздачи: да (Ping, 300dpi, 108Mb) Сканы журнала - только обложка (Jpeg).

Треклист:
01. Jacoby Shaddix/Carlos Santana - Smoke On the Water - 5:05
02. Chickenfoot - Highway Star - 7:05
03. Chad Smith/Glenn Hughes - Maybe I’M a Leo - 4:59
04. Black Label Society - Pictures of Home - 3:31
05. Kings of Chaos - Never Before - 4:05
06. The Flaming Lips - Smoke On the Water - 4:25
07. Jimmy Barnes/Joe Bonamassa - Lazy - 8:53
08. Iron Maiden - Space Truckin' - 3:27
09. Metallica - When a Blind Man Cries - 4:37
10. Chad Smith/Glenn Hughes/Steve Vai - Highway Star - 6:18
Exact Audio Copy V1.0 beta 3 from 29. August 2011

EAC extraction logfile from 26. September 2012, 7:51

Various Artists / Re-Machined: A Tribute To Deep Purple's Machine Head

Used drive : Optiarc DVD RW AD-5200S Adapter: 2 ID: 0

Read mode : SecureUtilize accurate stream : YesDefeat audio cache : YesMake use of C2 pointers : No

Read offset correction : 48Overread into Lead-In and Lead-Out : NoFill up missing offset samples with silence : YesDelete leading and trailing silent blocks : NoNull samples used in CRC calculations : YesUsed interface : Native Win32 interface for Win NT & 2000

Used output format : User Defined EncoderSelected bitrate : 1024 kBit/sQuality : HighAdd ID3 tag : NoCommand line compressor : C:\Program Files (x86)\Exact Audio Copy\FLAC\FLAC.EXEAdditional command line options : -8 -V -T "ARTIST=%artist%" -T "TITLE=%title%" -T "ALBUM=%albumtitle%" -T "DATE=%year%" -T "TRACKNUMBER=%tracknr%" -T "GENRE=%genre%" -T "PERFORMER=%albuminterpret%" -T "COMPOSER=%composer%" %haslyrics%--tag-from-file=LYRICS="%lyricsfile%"%haslyrics% -T "ALBUMARTIST=%albumartist%" -T "DISCNUMBER=%cdnumber%" -T "TOTALDISCS=%totalcds%" -T "TOTALTRACKS=%numtracks%" -T "COMMENT=%comment%" %source% -o %dest%

TOC of the extracted CD

Track | Start | Length | Start sector | End sector --------------------------------------------------------- 1 | 0:00.00 | 5:05.28 | 0 | 22902 2 | 5:05.28 | 7:05.13 | 22903 | 54790 3 | 12:10.41 | 4:58.72 | 54791 | 77212 4 | 17:09.38 | 3:30.66 | 77213 | 93028 5 | 20:40.29 | 4:05.11 | 93029 | 111414 6 | 24:45.40 | 4:25.12 | 111415 | 131301 7 | 29:10.52 | 8:53.27 | 131302 | 171303 8 | 38:04.04 | 3:27.20 | 171304 | 186848 9 | 41:31.24 | 4:37.13 | 186849 | 207636 10 | 46:08.37 | 6:18.36 | 207637 | 236022

Range status and errors

Selected range

Filename G:\Download\Музыка LossLess\VA - Re-Machined A Tribute To Deep Purple's Machine Head\Various Artists - Re-Machined- A Tribute To Deep Purple's Machine Head.wav

Peak level 100.0 % Extraction speed 3.9 X Range quality 100.0 % Test CRC DEBFE35C Copy CRC DEBFE35C Copy OK

No errors occurred

AccurateRip summary

Track 1 not present in databaseTrack 2 not present in databaseTrack 3 not present in databaseTrack 4 not present in databaseTrack 5 not present in databaseTrack 6 not present in databaseTrack 7 not present in databaseTrack 8 not present in databaseTrack 9 not present in databaseTrack 10 not present in database

None of the tracks are present in the AccurateRip database

End of status report

==== Log checksum 841462C844F56E3AA0106FAA65B6D9B479DBBC8DCB2DE766522E707392BA75CE ====
AUDIOCHECKER v2.0 beta (build 457) - by Dester - <a href="mailto:opdester@freemail.hu" class="postLink">opdester@freemail.hu</a>~~~~~~~~~~~~~~~~~~~~~~~~~~~~~~~~~~-=== DO NOT EDIT THIS FILE! ===-

Path: ...\VA - Re-Machined A Tribute To Deep Purple's Machine Head

1 -=- Various Artists - Re-Machined- A Tribute To Deep Purple's Machine Head.flac -=- CDDA (100%)

17460372
Выпуск это трибьюта приурочен к выпуску 40-летнего юбилейного издания альбома Machine Head группы Deep Purple

Also as part of the celebrations of the 40th anniversary celebrations Re-Machined – A Tribute To Deep Purple's Machine Head will be released on September 4, 2012 in Europe) by Eagle Records.
1. Carlos Santana & Jacoby Shaddix – Smoke On The Water
Bass – Benny Rietveld
Congas – Karl Perazzo
Drums – Dennis Chambers
Keyboards – Freddie Ravel, Howard Benson
Lead Guitar – Carlos Santana
Lead Vocals – Jacoby Shaddix
Percussion – Karl Perazzo
Rhythm Guitar – Tommy Anthony
2. Chickenfoot – Highway Star
Bass – Michael Anthony
Drums – Chad Smith
Guitar – Joe Satriani
Vocals – Michael Anthony, Sammy Hagar
3. Glenn Hughes & Chad Smith – Maybe I'm A Leo
Bass – Glenn Hughes
Drums – Chad Smith
Guitar – Luis Maldonado
Vocals – Glenn Hughes
4. Black Label Society – Pictures Of Home
Bass – John DeServio
Drums – Chad Szeliga
Guitar – Zakk Wylde
Vocals – Zakk Wylde
5. Kings Of Chaos – Never Before
B3 Organ – Arlan Schierbaum
Bass – Duff McKagan
Drums – Matt Sorum
Guitar – Steve Stevens
Vocals – Joe Elliot
Wurlitzer – Arlan Schierbaum
6. Flaming Lips, The With Gibby Haynes – Smoke On The Water
7. Jimmy Barnes & Joe Bonamassa – Lazy
Bass – Michael Rhodes
Drums – Anton Fig
Guitar – Brad Whitford, Joe Bonamassa
Organ – Arlan Schierbaum
Vocals – Jimmy Barnes
8. Iron Maiden – Space Truckin'
Bass – Steve Harris
Drums – Nicko McBrain
Guitar – Adrian Smith, Dave Murray, Janick Gers
Vocals – Bruce Dickinson
9. Metallica – When A Blind Man Cries
Bass – Robert Trujillo
Drums – Lars Ulrich
Guitar – James Hetfield, Kirk Hammett
Vocals – James Hetfield
10. Glenn Hughes, Steve Vai & Chad Smith – Highway Star
Bass – Glenn Hughes
Drums – Chad Smith
Guitar – Steve Vai
Keyboards – Lachlan Doley


Трекер:  [ 27-Сен-2012 19:10 ]

  

Скачать .torrent

Размер .torrent файла 20 KB


Размер: 491 MB
Хэш (hash) релиза: e0b2e5e6d406994ec8c2d9b608f6c17268d961f7

Торренты, похожие на VA - Re-Machined A Tribute To Deep Purples Machine Head скачать торрент

Форум Название Автор Размер S L Добавлен
Rосk | Mеtаl | Аltеrnаtivе, Рunk, Indереndеnt (mр3) ·· (Hard Rock) VA - Re-Machined: A Tribute To Deep Purple's Machine Head - 2012, MP3, 320 kbps _N_ 142391451136 MB 0 0 1383403326

17:42

2-Ноя-13

Еще никто не оставлял запись к записи скачать торрент VA - Re-Machined A Tribute To Deep Purples Machine Head . Будь первым!

!Обратная связь