Скачать через торрент музыку Morse Code Transmissio бесплатно без регистрации torrent

Если у вас наблюдаются проблемы со скриншотами, переходом по ссылками, скачиванием торрентов - проблемы в блокировщике рекламы AdBlock. #хорошегоДня!


Статистика раздачи
Размер:  334 MB   |    Зарегистрирован:  5 лет 2 месяца   |    .torrent скачан:  30 раз   |   
Раздают:  1  
   
Загрузка...
 
Автор Сообщение

Galfimbul

avatar Galfimbul


Morse Code Transmission(Morse Code) / Morse Code Transmission 2 - 1972

Жанр: Psychedelic/Proto-Prog
Страна-производитель диска: Germany
Год издания: 2012
Издатель (лейбл): O-Music Records
Номер по каталогу: OM 71034
Страна: Canada
Аудиокодек: FLAC (*.flac)
Тип рипа: image+.cue
Битрейт аудио: lossless
Продолжительность: 51:46
Источник (релизер): my CD
Наличие сканов в содержимом раздачи: да

Треклист:
1. Funky Alley (8:11)
2. Soul Odyssey (3:36)
3. Graveyard of Man (4:54)
4. Stick the Fork In (8:16)
5. Liberty, Freedom, Man (9:28)
6. Cold Society (4:39)
7. New Woman Kind (4:31)
8. Sky Ride (4:29)
9. Satan`s Song (3:22)
Exact Audio Copy V0.99 prebeta 4 from 23. January 2008

Отчёт EAC об извлечении, выполненном 8. октября 2012, 13:37

Morse Code Transmission / Morse Code Transmission 2

Дисковод: ASUS DRW-24B1ST Adapter: 3 ID: 0

Режим чтения : ДостоверностьИспользование точного потока : ДаОтключение кэша аудио : ДаИспользование указателей C2 : Нет

Коррекция смещения при чтении : 6Способность читать области Lead-in и Lead-out : НетЗаполнение пропущенных сэмплов тишиной : ДаУдаление блоков с тишиной в начале и конце : НетПри вычислениях CRC использовались нулевые сэмплы : ДаИнтерфейс : Встроенный Win32-интерфейс для Win NT/2000

Выходной формат : Пользовательский кодировщикВыбранный битрейт : 768 kBit/sКачество : ВысокийДобавление ID3-тэга : НетУтилита сжатия : C:\Program Files\Exact Audio Copy\FLAC\FLAC.EXEДополнительные параметры : -6 -V -T "ARTIST=%a" -T "TITLE=%t" -T "ALBUM=%g" -T "DATE=%y" -T "TRACKNUMBER=%n" -T "GENRE=%m" -T "COMMENT=%e" %s -o %d

TOC извлечённого CD

Трек | Старт | Длительность | Начальный сектор | Конечный сектор --------------------------------------------------------------------- 1 | 0:00.00 | 8:13.68 | 0 | 37042 2 | 8:13.68 | 3:38.04 | 37043 | 53396 3 | 11:51.72 | 4:54.24 | 53397 | 75470 4 | 16:46.21 | 8:38.45 | 75471 | 114365 5 | 25:24.66 | 9:29.31 | 114366 | 157071 6 | 34:54.22 | 4:39.53 | 157072 | 178049 7 | 39:34.00 | 4:32.56 | 178050 | 198505 8 | 44:06.56 | 4:31.24 | 198506 | 218854 9 | 48:38.05 | 3:23.69 | 218855 | 234148

Характеристики диапазона извлечения и сообщения об ошибках

Выбранный диапазон

Имя файла D:\purple\EAC\Morse Code Transmission - Morse Code Transmission 2.wav

Пиковый уровень 100.0 % Качество диапазона 100.0 % CRC теста EA638B54 CRC копии EA638B54 Копирование... OK

Ошибок не произошло

AccurateRip: сводка

Трек 1 нет в базе данныхТрек 2 нет в базе данныхТрек 3 нет в базе данныхТрек 4 нет в базе данныхТрек 5 нет в базе данныхТрек 6 нет в базе данныхТрек 7 нет в базе данныхТрек 8 нет в базе данныхТрек 9 нет в базе данных

Ни одного трека нет в базе AccurateRip

Конец отчёта
- Raymond Roy / drums, percussions
- Michel Vallee / bass, vocals
- Berny Tapin / lead guitar, acoustic guitar
- Christian Simard / piano, organ, tonga, lead vocals


Трекер:  [ 14-Окт-2012 11:10 ]

  

Скачать .torrent

Размер .torrent файла 14 KB


Размер: 334 MB
Хэш (hash) релиза: da72703c535cea934d8995c1cd3769228e2d5652

Еще никто не оставлял запись к записи скачать торрент Morse Code Transmissio . Будь первым!

!Обратная связь