Скачать через торрент музыку Kens Novel - The Guide бесплатно без регистрации torrent

Если у вас наблюдаются проблемы со скриншотами, переходом по ссылками, скачиванием торрентов - проблемы в блокировщике рекламы AdBlock. #хорошегоДня!


Статистика раздачи
Размер:  416 MB   |    Зарегистрирован:  5 лет 1 месяц   |    .torrent скачан:  8 раз   |   
Раздают:  1  
   
Загрузка...
 
Автор Сообщение

Galfimbul

avatar Galfimbul


Ken's Novel - The Guide

Жанр: Neo Progressive
Год выпуска диска: 1999
Страна: Belgium
Label: Big Sky Music / Musea Records
Catalog Nr.: FGBG 4292.AR
Аудио кодек: FLAC
Тип рипа: image+.cue (test&copy)
Битрейт аудио: lossless
Продолжительность: 57:21
Источник: свой старый рип


Трэклист:

1. Chapter 1 ... The Guide (9:02)
2. Chapter 2 ... Guiltry Witnesses (5:31)
3. Chapter 3 ... Homeland (8:16)
4. Chapter 4 ... Power And Dignity (7:42)
5. Chapter 5 ... Be Yourself Again (7:59)
6. Chapter 6 ... Thorny Present (1:09)
7. Chapter 7 ... Rumour Of War (6:16)
8. Chapter 8 ... Shielded? (4:58)
9. Chapter 9 ... In Disgrace (1:28)
10. Chapter 10 ... A Matter Of Pride (4:58)

Total Time: 57:21

Об альбоме: Дебютный релиз бельгийского нео-прогового коллектива, выпустившего два номерных альбома, не считая unplugged.
Весьма энергичный нео-прог. Лично мнравится гораздо больше второго альбома, который, кстати, на трекере имеется.
Рип сделан давно, в комплекте ковриков не хватает скана самого блина. Помощь в этом плане приветствуется.
- Patrick Muermans / lead and backing vocals, drums and keyboards programming
- Eric Vanderbemden / acoustic and electric guitars
- Bernard Piette / keyboards
- Geoffrey Leontiev / drums, percussions, drums and keyboards programming

GUESTS:
- François Gaube / keyboards on "A Matter Of Pride"
- Jacky Giglio / backing vocals
- Ireneusz Grabowski / violin on "Homeland"
- Daphné Legrand / backing vocals
- Marcellin Williquet / bass
- Alain Vael / guitar on "In Disgrace"
Exact Audio Copy V0.99 prebeta 5 from 4. May 2009

EAC extraction logfile from 23. September 2009, 23:09

Ken's Novel / The Guide

Used drive : ASUS DRW-20B1ST Adapter: 4 ID: 0

Read mode : Secure
Utilize accurate stream : Yes
Defeat audio cache : Yes
Make use of C2 pointers : No

Read offset correction : 6
Overread into Lead-In and Lead-Out : No
Fill up missing offset samples with silence : Yes
Delete leading and trailing silent blocks : No
Null samples used in CRC calculations : Yes
Used interface : Native Win32 interface for Win NT & 2000

Used output format : User Defined Encoder
Selected bitrate : 1024 kBit/s
Quality : High
Add ID3 tag : Yes
Command line compressor : C:\Program Files\flac.exe
Additional command line options : -6 -V -T "ARTIST=%a" -T "TITLE=%t" -T "ALBUM=%g" -T "DATE=%y" -T "TRACKNUMBER=%n" -T "GENRE=%m" -T "COMMENT=%e" %s -o %d

TOC of the extracted CD

Track | Start | Length | Start sector | End sector
---------------------------------------------------------
1 | 0:00.00 | 9:02.16 | 0 | 40665
2 | 9:02.16 | 5:31.03 | 40666 | 65493
3 | 14:33.19 | 8:18.06 | 65494 | 102849
4 | 22:51.25 | 7:41.27 | 102850 | 137451
5 | 30:32.52 | 7:59.44 | 137452 | 173420
6 | 38:32.21 | 1:08.33 | 173421 | 178553
7 | 39:40.54 | 6:16.07 | 178554 | 206760
8 | 45:56.61 | 4:58.58 | 206761 | 229168
9 | 50:55.44 | 1:27.55 | 229169 | 235748
10 | 52:23.24 | 4:58.04 | 235749 | 258102

Range status and errors

Selected range

Filename M:\EAC\sole-survivor\Ken's Novel\Ken's Novel - The Guide.wav

Peak level 100.0 %
Range quality 100.0 %
Test CRC 7096334C
Copy CRC 7096334C
Copy OK

No errors occurred

AccurateRip summary

Track 1 accurately ripped (confidence 1) [75DC899C]
Track 2 accurately ripped (confidence 1) [82B42A13]
Track 3 accurately ripped (confidence 1) [8ADD9B69]
Track 4 accurately ripped (confidence 1) [CC1BA593]
Track 5 accurately ripped (confidence 1) [D7992025]
Track 6 accurately ripped (confidence 1) [1B434325]
Track 7 accurately ripped (confidence 1) [53D5F36A]
Track 8 accurately ripped (confidence 1) [F23C4CAF]
Track 9 accurately ripped (confidence 1) [FA30D3CF]
Track 10 accurately ripped (confidence 1) [D83EFF7B]

All tracks accurately ripped

End of status report
[CUETools log; Date: 27.10.2012 0:03:23; Version: 2.1.4]
[CTDB TOCID: Ashpunkr9n0Kq2r1MzihyU67Lxw-] found.
Track | CTDB Status
1 | (1/1) Accurately ripped
2 | (1/1) Accurately ripped
3 | (1/1) Accurately ripped
4 | (1/1) Accurately ripped
5 | (1/1) Accurately ripped
6 | (1/1) Accurately ripped
7 | (1/1) Accurately ripped
8 | (1/1) Accurately ripped
9 | (1/1) Accurately ripped
10 | (1/1) Accurately ripped
[AccurateRip ID: 0018d83b-00bff50f-8c0d710a] found.
Track [ CRC | V2 ] Status
01 [75dc899c|54e30898] (3+0/3) Accurately ripped
02 [82b42a13|bbc1dba5] (3+0/3) Accurately ripped
03 [8add9b69|527f56c6] (3+0/3) Accurately ripped
04 [cc1ba593|ea0bad05] (3+0/3) Accurately ripped
05 [d7992025|a7cdc97d] (3+0/3) Accurately ripped
06 [1b434325|a72fa44e] (3+0/3) Accurately ripped
07 [53d5f36a|7ffb7366] (3+0/3) Accurately ripped
08 [f23c4caf|74177650] (3+0/3) Accurately ripped
09 [fa30d3cf|3c5e5aec] (3+0/3) Accurately ripped
10 [d83eff7b|ed33b8fe] (3+0/3) Accurately ripped

Track Peak [ CRC32 ] [W/O NULL] [ LOG ]
-- 100,0 [7096334C] [89B4FCFC] CRC32
01 100,0 [219AB459] [7983AD01]
02 100,0 [ABF3A88F] [C85E55B5]
03 100,0 [1DB23CA2] [7779FC05]
04 100,0 [BA28C68B] [D1C12192]
05 100,0 [710B0CBA] [D62FAF4B]
06 84,0 [2FDCD6AD] [B1344809]
07 100,0 [F02C5D65] [A933F5B9]
08 100,0 [9E35F457] [8FA1EEBC]
09 100,0 [878C363B] [C5B8D7C7]
10 100,0 [16A76CF9] [0DB67856]
Коврики 300dpi (без скана блина) в комплекте.
Progarchives info

Трекер:  [ 27-Окт-2012 13:54 ]

  

Скачать .torrent

Размер .torrent файла 17 KB


Размер: 416 MB
Хэш (hash) релиза: 52c6cbfb25090f8dc3d05ea6f95ca6a14b6114bf

Торренты, похожие на Kens Novel - The Guide скачать торрент

Форум Название Автор Размер S L Добавлен
Зарубежный Rock ·· (Neo Progressive Rock) Ken's Novel - The Guide - 1999, MP3, 320 kbps Galfimbul 139762209133 MB 0 0 1359468180

17:03

29-Янв-13

Еще никто не оставлял запись к записи скачать торрент Kens Novel - The Guide . Будь первым!

!Обратная связь