Скачать через торрент музыку UFO - Walk on Water бесплатно без регистрации torrent

Если у вас наблюдаются проблемы со скриншотами, переходом по ссылками, скачиванием торрентов - проблемы в блокировщике рекламы AdBlock. #хорошегоДня!


Статистика раздачи
Размер:  432 MB   |    Зарегистрирован:  5 лет 1 месяц   |    .torrent скачан:  10 раз   |   
Раздают:  1  
   
Загрузка...
 
Автор Сообщение

Galfimbul

avatar Galfimbul


UFO / Walk on Water (Japan XRCN-1237)

Жанр: Hard Rock
Страна-производитель диска: Japan
Год издания: 1995
Издатель (лейбл): Zero
Номер по каталогу: XRCN-1237
Страна: UK
Аудиокодек: FLAC (*.flac)
Тип рипа: image+.cue
Битрейт аудио: lossless
Продолжительность: 58:19
Источник (релизер): Собственный рип
Наличие сканов в содержимом раздачи: да
Треклист:
01. A Self Made Man
02. Venus
03. Pushed To The Limit
04. Stopped By A Bullet (Of Love)
05. Darker Days
06. Running On Empty
07. Knock, Knock
08. Dreaming Of Summer
09. Doctor, Doctor '95
10. Lights Out '95
11. Message For Japan
Exact Audio Copy V1.0 beta 3 from 29. August 2011

Отчёт EAC об извлечении, выполненном 1. ноября 2012, 23:28

UFO / WALK ON WATER (XRCN-1237 JAPAN)

Дисковод: PIONEER DVD-RW DVR-111D Adapter: 5 ID: 1

Режим чтения : ДостоверностьИспользование точного потока : ДаОтключение кэша аудио : ДаИспользование указателей C2 : Нет

Коррекция смещения при чтении : 48Способность читать области Lead-in и Lead-out : НетЗаполнение пропущенных сэмплов тишиной : ДаУдаление блоков с тишиной в начале и конце : НетПри вычислениях CRC использовались нулевые сэмплы : ДаИнтерфейс : Встроенный Win32-интерфейс для Win NT/2000

Выходной формат : Пользовательский кодировщикВыбранный битрейт : 128 kBit/sКачество : ВысокийДобавление ID3-тега : НетУтилита сжатия : C:\Program Files\FLAC\flac.exeДополнительные параметры : -V -8 -T "Date=%year%" -T "Genre=%genre%" %source%

TOC извлечённого CD

Трек | Старт | Длительность | Начальный сектор | Конечный сектор --------------------------------------------------------------------- 1 | 0:00.00 | 6:23.55 | 0 | 28779 2 | 6:23.55 | 5:20.35 | 28780 | 52814 3 | 11:44.15 | 3:50.30 | 52815 | 70094 4 | 15:34.45 | 4:35.67 | 70095 | 90786 5 | 20:10.37 | 5:39.48 | 90787 | 116259 6 | 25:50.10 | 5:11.15 | 116260 | 139599 7 | 31:01.25 | 4:21.50 | 139600 | 159224 8 | 35:23.00 | 7:04.17 | 159225 | 191041 9 | 42:27.17 | 4:28.10 | 191042 | 211151 10 | 46:55.27 | 5:15.00 | 211152 | 234776 11 | 52:10.27 | 6:09.10 | 234777 | 262461

Характеристики диапазона извлечения и сообщения об ошибках

Выбранный диапазон

Имя файла G:\EAC - extract\UFO - 1995 - Walk on Water (XRCN-1237).wav

Пиковый уровень 100.0 % Скорость извлечения 7.4 X Качество диапазона 100.0 % CRC теста DA0DD00C CRC копии DA0DD00C Копирование... OK

Ошибок не произошло

AccurateRip: сводка

Трек 1 : извлечено точно (доверие 9) [2A4BEFBA] (AR v1)Трек 2 : извлечено точно (доверие 9) [BE2797B8] (AR v1)Трек 3 : извлечено точно (доверие 9) [5508EF8F] (AR v1)Трек 4 : извлечено точно (доверие 9) [0B7E3A22] (AR v1)Трек 5 : извлечено точно (доверие 9) [0AE05F1E] (AR v1)Трек 6 : извлечено точно (доверие 9) [D54F2C0E] (AR v1)Трек 7 : извлечено точно (доверие 9) [DC92480F] (AR v1)Трек 8 : извлечено точно (доверие 9) [F1819CCC] (AR v1)Трек 9 : извлечено точно (доверие 9) [E06AFB14] (AR v1)Трек 10 : извлечено точно (доверие 9) [0F503FBF] (AR v1)Трек 11 : извлечено точно (доверие 9) [29AEE26D] (AR v1)

Все треки извлечены точно

Конец отчёта

==== Контрольная сумма отчёта 1CF93E0E33209E0D368AF77F36A20C9217981E4CFC61D55A38A3F05E5FDBAE4B ====


Трекер:  [ 11-Ноя-2012 14:59 ]

  

Скачать .torrent

Размер .torrent файла 18 KB


Размер: 432 MB
Хэш (hash) релиза: f8269b4fd8872f3a5c5d7f126488dcc6a2461369

Еще никто не оставлял запись к записи скачать торрент UFO - Walk on Water . Будь первым!

!Обратная связь