Скачать через торрент музыку Roz Vitalis - Patience of Hope - 2012, APE бесплатно без регистрации torrent

Если у вас наблюдаются проблемы со скриншотами, переходом по ссылками, скачиванием торрентов - проблемы в блокировщике рекламы AdBlock. #хорошегоДня!


Статистика раздачи
Размер:  308 MB   |    Зарегистрирован:  5 лет   |    .torrent скачан:  10 раз   |   
Раздают:  1  
   
Загрузка...
 
Автор Сообщение

Galfimbul

avatar Galfimbul


Roz Vitalis / Patience of Hope

Жанр: RIO/Avant-Prog
Страна-производитель диска: Россия
Год издания: 2012
Издатель (лейбл): Mals
Номер по каталогу: MALS 392
Страна: Россия
Аудиокодек: APE (*.ape)
Тип рипа: image+.cue
Битрейт аудио: lossless
Продолжительность: 00:49:20
Источник (релизер): домашние закрома
Наличие сканов в содержимом раздачи: да
Треклист:
01. Patience of Hope (6:43)
02. The Unfading Sun (The Loved Version) (2:50)
03. To Stir Up Your Pure Minds (3:10)
04. Seeds Fell Among Thorns (6:17)
05. The Forgiven Monday (3:36)
06. Gorgeous Cliff (1:35)
07. Mother of All Rain (4:28)
08. Confidence (5:53)
09. Dove il Sole E Meraviglia (1:57)
10. Touching Upon the Mystery (8:55)
11. The Unfading Sun (The Loving Version) (3:56)
Exact Audio Copy V1.0 beta 3 from 29. August 2011

Отчёт EAC об извлечении, выполненном 29. ноября 2012, 13:01

Roz Vitalis / Patience of hope

Дисковод: ASUS SDRW-08D1S-U Adapter: 1 ID: 0

Режим чтения : ДостоверностьИспользование точного потока : ДаОтключение кэша аудио : ДаИспользование указателей C2 : Нет

Коррекция смещения при чтении : 103Способность читать области Lead-in и Lead-out : НетЗаполнение пропущенных сэмплов тишиной : ДаУдаление блоков с тишиной в начале и конце : НетПри вычислениях CRC использовались нулевые сэмплы : ДаИнтерфейс : Встроенный Win32-интерфейс для Win NT/2000

Выходной формат : Пользовательский кодировщикВыбранный битрейт : 1024 kBit/sКачество : ВысокийДобавление ID3-тега : НетУтилита сжатия : C:\Program Files\Exact Audio Copy\Monkey's Audio\MAC.exeДополнительные параметры : %source% %dest% -c3000

TOC извлечённого CD

Трек | Старт | Длительность | Начальный сектор | Конечный сектор --------------------------------------------------------------------- 1 | 0:00.00 | 6:43.45 | 0 | 30269 2 | 6:43.45 | 2:50.22 | 30270 | 43041 3 | 9:33.67 | 3:10.37 | 43042 | 57328 4 | 12:44.29 | 6:18.08 | 57329 | 85686 5 | 19:02.37 | 3:36.44 | 85687 | 101930 6 | 22:39.06 | 1:35.40 | 101931 | 109095 7 | 24:14.46 | 4:28.22 | 109096 | 129217 8 | 28:42.68 | 5:53.64 | 129218 | 155756 9 | 34:36.57 | 1:56.54 | 155757 | 164510 10 | 36:33.36 | 8:56.00 | 164511 | 204710 11 | 45:29.36 | 3:57.00 | 204711 | 222485

Характеристики диапазона извлечения и сообщения об ошибках

Выбранный диапазон

Имя файла H:\!!!-МОИ РАЗДАЧИ-!!!\cd\Roz Vitalis (2012) - Patience of hope\Roz Vitalis - Patience of hope.wav

Пиковый уровень 98.9 % Скорость извлечения 2.0 X Качество диапазона 100.0 % CRC теста 157F633E CRC копии 157F633E Копирование... OK

Ошибок не произошло

Конец отчёта

---- CUETools DB Plugin V2.1.3

[CTDB TOCID: zdLXWPW283NO4j6w.pp1SZvOpl4-] disk not present in database, Submit result: zdLXWPW283NO4j6w.pp1SZvOpl4- has been uploaded

==== Контрольная сумма отчёта 14681E6CDAF3DD49949EE9E7FE8BF6B281E48679A72D1ACFF219628769D5EB59 ====
AUDIOCHECKER v2.0 beta (build 457) - by Dester - <a href="mailto:opdester@freemail.hu" class="postLink">opdester@freemail.hu</a>~~~~~~~~~~~~~~~~~~~~~~~~~~~~~~~~~~-=== НЕ РЕДАКТИРУЙТЕ ЭТОТ ФАЙЛ! ===-

Путь: ...\Roz Vitalis (2012) - Patience of hope

1 -=- Roz Vitalis - Patience of hope.ape -=- CDDA (100%)

167371492
ROZ VITALIS was created by composer and keyboardist Ivan Rozmainsky in 2001. Primarily it was one-man band. In 2003 ROZ VITALIS had

become trio and included also Nadezhda Regentova (keyboards, voices) and Vladimir Polyakov (keyboards). In 2005 line-up experiences

expansion. Now the band includes also Klara Metelkova (flutes, harmonica, vocals) and Yuri Verba (clarinet). Style of ROZ VITALIS is

RIO/Avant-Prog/Symphonic Prog/Psychedelic/Space Rock. The main influences are LE ORME, GENTLE GIANT, KING CRIMSON, YES, ELP,

SUPERSISTER, JETHRO TULL, DEPECHE MODE, AFTER CRYING. Music of the band was compared by prog-reviewers with GENTLE GIANT, UNIVERS

ZERO, BRIAN HIRSCH, KING CRIMSON, TRIUMVIRAT, KRAFTWERK etc. In short, music of ROZ VITALIS can remind KING CRIMSON and GENTLE

GIANT, but is keyboard-based, with rare female voices and electronic drums. It is "chamber electronic prog" rather than "rockish

music".
The best recordings are the following. "Lazarus" (2003) - RIO with ethno and electronic elements. see reviews at

www.progressiveears.com & www.proglands.com ; "Das Licht Der Menschen" (2004) - concept album including three 20-28-minute epics

devoted to the "theological idea of Trinity". It is very polyphonic album, difficult for listening. "Enigmarden" (2005) - almost

instrumental prog-music with flutes and clarinet solos. EP-albums "Painsadist" (2003) and "The Threesunny Light Power" (2004) also

can be recommended. More early albums are characterized by low quality of recording. All albums are self-released ones.
- Vladimir Efimov / guitars, keyboards
- Yuru Khomonenko / percussion, drums, accordion
- Ruslan Kirillov / bass
- Philip Semenov / drums
- Vladislav Korotkikh / flutes, harp
- Ivan Rozmainsky / piano, harpsichord, Hammond, keyboards, metallophone
- Vladimir Semenov-Tyan-Shansky / guitars, bass
With:
- Natalia Fedorova / gusli
- Dasha Kosatina / cello
- Grigory Maliev / clarinets
- Fyodor Mazhzhevelov / bassoon
- Ilya Rysin / trumpet, flugelhorn
- Roman Shilepin / sax
- Ilya Ten / cello


Трекер:  [ 09-Дек-2012 15:18 ]

  

Скачать .torrent

Размер .torrent файла 13 KB


Размер: 308 MB
Хэш (hash) релиза: d3fa17b147125f9365fccb14deb89e9b376cb8ed

Еще никто не оставлял запись к записи скачать торрент Roz Vitalis - Patience of Hope - 2012, APE . Будь первым!

!Обратная связь