Скачать через торрент Насу: Лето в Андалусии Nasu: Andalusia no Natsu бесплатно Аниме Все серии на русском torrent

Если у вас наблюдаются проблемы со скриншотами, переходом по ссылками, скачиванием торрентов - проблемы в блокировщике рекламы AdBlock. #хорошегоДня!


Статистика раздачи
Размер:  1.3 GB   |    Зарегистрирован:  5 лет   |    .torrent скачан:  4 раза   |   
Раздают:  1  
   
Загрузка...
 
Автор Сообщение

Polarnik

avatar Polarnik


Насу: Лето в Андалусии / Nasu: Andalusia no Natsu / Nasu: Summer in Andalusia

Страна: Япония
Год выпуска: 2003 г.
Жанр: спорт, драма
Тип: Movie
Продолжительность: ~46 мин.
Режиссер: Косака Китаро
Студия: Madhause

Описание: В сентябре в Испании проходит трехдневная шоссейная велогонка Вуэльта. В этом году лето не спешит заканчиваться, и гонщикам предстоит состязаться на 40-градусной жаре. Пепе Бененгели – уроженец Андалузии, трасса проходит прямо через его родной городок. По идее, знание местности должно ему помочь... однако сознание того, что именно на сегодня назначена свадьба его старшего брата с его же, Пепе, бывшей девушкой, вряд ли способно подстегнуть волю к победе.

Качество: BDRip
Тип релиза: Без хардсаба
Формат видео: MKV
Наличие линковки: Нет
Релиз/Автор рипа: sirdji
Видео: AVC High <a href="mailto:10@L3.2" class="postLink">10@L3.2</a> 3393.73 kb/s vbr 23.976 fps
Аудио: AC3 640 Kbps 48.0 KHz 6 channels Язык Японский
Субтитры: srt Язык субтитров русский
GeneralUnique ID : 228795740828128252300416596790724442881 (0xAC2074F386B6E420A3398D201C62BB01)Complete name : N:\Nasu Andalusia no Natsu\Nasu Andalusia no Natsu AC3.mkvFormat : MatroskaFormat version : Version 2File size : 1.30 GiBDuration : 46mn 9sOverall bit rate : 4 035 KbpsEncoded date : UTC 2012-12-09 11:43:03Writing application : mkvmerge v5.8.0 ('No Sleep / Pillow') built on Sep 2 2012 15:37:04Writing library : libebml v1.2.3 + libmatroska v1.3.0

VideoID : 1Format : AVCFormat/Info : Advanced Video CodecFormat profile : High <a href="mailto:10@L3.2Format" class="postLink">10@L3.2Format</a> settings, CABAC : YesFormat settings, ReFrames : 6 framesCodec ID : V_MPEG4/ISO/AVCDuration : 46mn 9sBit rate : 3 315 KbpsWidth : 960 pixelsHeight : 720 pixelsDisplay aspect ratio : 4:3Frame rate mode : ConstantFrame rate : 23.976 fpsColor space : YUVChroma subsampling : 4:2:0Bit depth : 10 bitsScan type : ProgressiveBits/(Pixel*Frame) : 0.200Stream size : 1.07 GiB (82%)Writing library : x264 core 125 r2208+677+32 26f090e tMod [10-bit@4:2:0 X86_64]Encoding settings : cabac=1 / ref=6 / deblock=1:-2:-2 / analyse=0x3:0x113 / me=umh / subme=9 / psy=1 / fade_compensate=0.00 / psy_rd=0.80:0.05 / mixed_ref=1 / me_range=32 / chroma_me=0 / trellis=2 / 8x8dct=1 / cqm=0 / deadzone=21,11 / fast_pskip=0 / chroma_qp_offset=-3 / threads=12 / lookahead_threads=4 / sliced_threads=0 / nr=0 / decimate=1 / interlaced=0 / bluray_compat=0 / constrained_intra=0 / fgo=0 / bframes=8 / b_pyramid=2 / b_adapt=2 / b_bias=0 / direct=1 / weightb=1 / open_gop=0 / weightp=2 / keyint=240 / keyint_min=23 / scenecut=40 / intra_refresh=0 / rc_lookahead=60 / rc=crf / mbtree=0 / crf=14.0000 / qcomp=0.70 / qpmin=0 / qpmax=81 / qpstep=4 / vbv_maxrate=50000 / vbv_bufsize=50000 / crf_max=0.0 / nal_hrd=none / ip_ratio=1.40 / pb_ratio=1.30 / aq=4:0.70Default : YesForced : NoColor primaries : BT.709Transfer characteristics : BT.709Matrix coefficients : BT.709

AudioID : 2Format : AC-3Format/Info : Audio Coding 3Mode extension : CM (complete main)Format settings, Endianness : BigCodec ID : A_AC3Duration : 46mn 9sBit rate mode : ConstantBit rate : 640 KbpsChannel(s) : 6 channelsChannel positions : Front: L C R, Side: L R, LFESampling rate : 48.0 KHzBit depth : 16 bitsCompression mode : LossyStream size : 211 MiB (16%)Language : JapaneseDefault : YesForced : No

Menu00:00:00.000 : en:00:00:00.00000:02:02.080 : en:00:02:02.08000:04:11.501 : en:00:04:11.50100:07:04.049 : en:00:07:04.04900:09:35.366 : en:00:09:35.36600:12:32.752 : en:00:12:32.75200:14:39.879 : en:00:14:39.87900:18:50.254 : en:00:18:50.25400:22:04.698 : en:00:22:04.69800:24:51.949 : en:00:24:51.94900:28:45.974 : en:00:28:45.97400:31:25.509 : en:00:31:25.50900:34:21.726 : en:00:34:21.72600:37:32.625 : en:00:37:32.62500:40:13.911 : en:00:40:13.91100:41:43.000 : en:00:41:43.00000:43:04.081 : en:00:43:04.081


Трекер:  [ 10-Дек-2012 11:02 ]

  

Скачать .torrent

Размер .torrent файла 13 KB


Размер: 1.3 GB
Хэш (hash) релиза: 2a6861c7d74f8123c8a50d30cdbf9622f44a179f
Подписка на обновления:

Еще никто не оставлял запись к записи скачать торрент Насу: Лето в Андалусии Nasu: Andalusia no Natsu . Будь первым!

!Обратная связь