Скачать через торрент музыку Lynyrd Skynyrd - Edge Of Forever - 1999, APE бесплатно без регистрации torrent

Если у вас наблюдаются проблемы со скриншотами, переходом по ссылками, скачиванием торрентов - проблемы в блокировщике рекламы AdBlock. #хорошегоДня!


Статистика раздачи
Размер:  380 MB   |    Зарегистрирован:  4 года 11 месяцев   |    .torrent скачан:  29 раз   |   
Раздают:  1  
   
Загрузка...
 
Автор Сообщение

Galfimbul

avatar Galfimbul


Lynyrd Skynyrd / Edge Of Forever

Жанр: Classic Rock & Hard Rock
Страна-производитель диска: Japan
Год издания: 1999
Издатель (лейбл): Virgin
Номер по каталогу: VICP-60882
Аудиокодек: APE (*.ape)
Тип рипа: image+.cue
Битрейт аудио: lossless
Продолжительность: 0;54:38
Источник (релизер): Собстпенный релиз
Наличие сканов в содержимом раздачи: нет
Треклист:
01. Workin'
02. Full Moon Night
03. Preacher Man
04. Mean Streets
05. Tomorrow's Goodbye
06. Edge Of Forever
07. Gone Fishin'
08. Through It All
09. Money Back Guarantee
10. G.W.T.G.G.
11. Rough Around The Edges
12. FLA
Exact Audio Copy V0.99 prebeta 5 from 4. May 2009

Отчёт EAC об извлечении, выполненном 14. декабря 2012, 2:32

Lynyrd Skynyrd / Edge Of Forever

Дисковод: Optiarc DVD RW AD-7200S Adapter: 3 ID: 0

Режим чтения : ДостоверностьИспользование точного потока : ДаОтключение кэша аудио : ДаИспользование указателей C2 : Нет

Коррекция смещения при чтении : 48Способность читать области Lead-in и Lead-out : НетЗаполнение пропущенных сэмплов тишиной : ДаУдаление блоков с тишиной в начале и конце : НетПри вычислениях CRC использовались нулевые сэмплы : ДаИнтерфейс : Встроенный Win32-интерфейс для Win NT/2000

Выходной формат : Внутренние WAV-операцииФормат сэмплов : 44.100 Гц; 16 бит; стерео

TOC извлечённого CD

Трек | Старт | Длительность | Начальный сектор | Конечный сектор --------------------------------------------------------------------- 1 | 0:00.00 | 4:53.70 | 0 | 22044 2 | 4:53.70 | 3:45.17 | 22045 | 38936 3 | 8:39.12 | 4:34.58 | 38937 | 59544 4 | 13:13.70 | 4:50.22 | 59545 | 81316 5 | 18:04.17 | 5:07.35 | 81317 | 104376 6 | 23:11.52 | 4:24.65 | 104377 | 124241 7 | 27:36.42 | 4:23.20 | 124242 | 143986 8 | 31:59.62 | 5:29.38 | 143987 | 168699 9 | 37:29.25 | 4:02.50 | 168700 | 186899 10 | 41:32.00 | 4:04.52 | 186900 | 205251 11 | 45:36.52 | 5:06.40 | 205252 | 228241 12 | 50:43.17 | 3:55.05 | 228242 | 245871

Характеристики диапазона извлечения и сообщения об ошибках

Выбранный диапазон

Имя файла C:\Users\Bishop\Desktop\Lynyrd Skynyrd - Edge Of Forever.(Japan)\Lynyrd Skynyrd - Edge Of Forever.wav

Пиковый уровень 98.8 % Качество диапазона 100.0 % CRC теста 15D43716 CRC копии 15D43716 Копирование... OK

Ошибок не произошло

AccurateRip: сводка

Трек 1 точное извлечение (доверие 1) [3272D46A]Трек 2 точное извлечение (доверие 1) [06CEE51A]Трек 3 точное извлечение (доверие 1) [527FC5BB]Трек 4 точное извлечение (доверие 1) [01816BE1]Трек 5 точное извлечение (доверие 1) [D8AA4FE1]Трек 6 точное извлечение (доверие 1) [F17C83A5]Трек 7 точное извлечение (доверие 1) [7772ED22]Трек 8 точное извлечение (доверие 1) [29BEBC9D]Трек 9 точное извлечение (доверие 1) [334FCCD6]Трек 10 точное извлечение (доверие 1) [C9BD050D]Трек 11 точное извлечение (доверие 1) [827706A3]Трек 12 точное извлечение (доверие 1) [F66A0163]

Все треки извлечены точно

Конец отчёта
REM GENRE RockREM DATE 1999REM DISCID AC0CCE0CREM COMMENT ExactAudioCopy v0.99pb5CATALOG 4988002392117PERFORMER "Lynyrd Skynyrd"TITLE "Edge Of Forever"FILE "Lynyrd Skynyrd - Edge Of Forever.ape" WAVE TRACK 01 AUDIO TITLE "Workin'" INDEX 01 00:00:00 TRACK 02 AUDIO TITLE "Full Moon Night" INDEX 00 04:53:51 INDEX 01 04:53:70 TRACK 03 AUDIO TITLE "Preacher Man" INDEX 00 08:39:06 INDEX 01 08:39:12 TRACK 04 AUDIO TITLE "Mean Streets" INDEX 00 13:13:68 INDEX 01 13:13:70 TRACK 05 AUDIO TITLE "Tomorrow's Goodbye" INDEX 00 18:04:08 INDEX 01 18:04:17 TRACK 06 AUDIO TITLE "Edge Of Forever" INDEX 00 23:10:18 INDEX 01 23:11:52 TRACK 07 AUDIO TITLE "Gone Fishin'" INDEX 00 27:35:43 INDEX 01 27:36:42 TRACK 08 AUDIO TITLE "Through It All" INDEX 01 31:59:62 TRACK 09 AUDIO TITLE "Money Back Guarantee" INDEX 00 37:28:53 INDEX 01 37:29:25 TRACK 10 AUDIO TITLE "G.W.T.G.G." INDEX 00 41:31:38 INDEX 01 41:32:00 TRACK 11 AUDIO TITLE "Rough Around The Edges" INDEX 00 45:36:28 INDEX 01 45:36:52 TRACK 12 AUDIO TITLE "FLA" INDEX 00 50:43:08 INDEX 01 50:43:17


Трекер:  [ 23-Дек-2012 11:54 ]

  

Скачать .torrent

Размер .torrent файла 15 KB


Размер: 380 MB
Хэш (hash) релиза: d35b28d0c9de349b581600ef578ae8c12e42e351

Торренты, похожие на Lynyrd Skynyrd - Edge Of Forever - 1999, APE скачать торрент

Форум Название Автор Размер S L Добавлен
Rосk | Mеtаl | Аltеrnаtivе, Рunk, Indереndеnt (losslеss) ·· ( Rock) Lynyrd Skynyrd - Street Survivors (1977); Twenty (1997); Edge Of Forever (1999) APE (image+.cue), lossless Galfimbul 12242334691.14 GB 0 0 1365324389

11:46

7-Апр-13

Еще никто не оставлял запись к записи скачать торрент Lynyrd Skynyrd - Edge Of Forever - 1999, APE . Будь первым!

!Обратная связь