Скачать через торрент музыку Year of the Goat - Angels Necropolis - 2012, FLAC бесплатно без регистрации torrent

Если у вас наблюдаются проблемы со скриншотами, переходом по ссылками, скачиванием торрентов - проблемы в блокировщике рекламы AdBlock. #хорошегоДня!


Статистика раздачи
Размер:  345 MB   |    Зарегистрирован:  4 года 11 месяцев   |    .torrent скачан:  20 раз   |   
Раздают:  1  
   
Загрузка...
 
Автор Сообщение

Galfimbul

avatar Galfimbul


Year of the Goat - Angels' Necropolis - 2012
Жанр: Rock
Год издания: 2012
Издатель (лейбл): Ván Records
Страна: Sweden
Аудиокодек: FLAC (*.flac)
Тип рипа: tracks+.cue
Битрейт аудио: lossless
Продолжительность: 00:50:45
Источник (релизер): [What.CD] trixbengel
Наличие сканов в содержимом раздачи: нет
Треклист:
01. For The King 04:26
02. Angels’ Necropolis 10:31
03. Spirits Of Fire 03:25
04. A Circle Of Serpents 05:39
05. Voice Of A Dragon 08:25
06. This Will Be Mine 03:45
07. I’ll Die For You 04:17
08. Thin Lines Of Broken Hopes 10:17
X Lossless Decoder version 20121027 (142.1)

XLD extraction logfile from 2012-12-18 16:47:49 +0000

Year Of The Goat / Angels' Necropolis

Used drive : Optiarc DVD RW AD-7260S (revision 1.03)

Ripper mode : XLD Secure RipperDisable audio cache : OK for the drive with a cache less than 1375KiBMake use of C2 pointers : NORead offset correction : 48Max retry count : 20Gap status : Analyzed, Appended (except HTOA)

TOC of the extracted CD Track | Start | Length | Start sector | End sector --------------------------------------------------------- 1 | 00:00:00 | 04:26:09 | 0 | 19958 2 | 04:26:09 | 10:31:09 | 19959 | 67292 3 | 14:57:18 | 03:25:18 | 67293 | 82685 4 | 18:22:36 | 05:39:18 | 82686 | 108128 5 | 24:01:54 | 08:24:60 | 108129 | 145988 6 | 32:26:39 | 03:44:72 | 145989 | 162860 7 | 36:11:36 | 04:16:54 | 162861 | 182114 8 | 40:28:15 | 10:16:60 | 182115 | 228374

AccurateRip Summary Disc not found in AccurateRip DB.

All Tracks Album gain : -9.24 dB Peak : 0.963715 Statistics Read error : 0 Jitter error (maybe fixed) : 0 Retry sector count : 0 Damaged sector count : 0

Track 01 Filename : /Year Of The Goat - Angels' Necropolis (2012) [FLAC]/01 For the King.flac Pre-gap length : 00:02:00

Track gain : -8.70 dB Peak : 0.963715 CRC32 hash (test run) : 6DDDEE8F CRC32 hash : 6DDDEE8F CRC32 hash (skip zero) : 7BDA7401 AccurateRip v1 signature : 66647FBE AccurateRip v2 signature : 10273835 ->Track not present in AccurateRip database. Statistics Read error : 0 Jitter error (maybe fixed) : 0 Retry sector count : 0 Damaged sector count : 0

Track 02 Filename : /Year Of The Goat - Angels' Necropolis (2012) [FLAC]/02 Angels' Necropolis.flac

Track gain : -9.12 dB Peak : 0.963715 CRC32 hash (test run) : 326726E9 CRC32 hash : 326726E9 CRC32 hash (skip zero) : CBCACFE7 AccurateRip v1 signature : CF16FE3A AccurateRip v2 signature : 47E6048B ->Track not present in AccurateRip database. Statistics Read error : 0 Jitter error (maybe fixed) : 0 Retry sector count : 0 Damaged sector count : 0

Track 03 Filename : /Year Of The Goat - Angels' Necropolis (2012) [FLAC]/03 Spirits of Fire.flac

Track gain : -8.91 dB Peak : 0.963715 CRC32 hash (test run) : C6BFC129 CRC32 hash : C6BFC129 CRC32 hash (skip zero) : C960BE68 AccurateRip v1 signature : F85097C7 AccurateRip v2 signature : 2E4B997B ->Track not present in AccurateRip database. Statistics Read error : 0 Jitter error (maybe fixed) : 0 Retry sector count : 0 Damaged sector count : 0

Track 04 Filename : /Year Of The Goat - Angels' Necropolis (2012) [FLAC]/04 A Circle of Serpents.flac

Track gain : -8.65 dB Peak : 0.963715 CRC32 hash (test run) : 904F3DED CRC32 hash : 904F3DED CRC32 hash (skip zero) : 5C8CAE4B AccurateRip v1 signature : A5E4AB7F AccurateRip v2 signature : 5360FFBD ->Track not present in AccurateRip database. Statistics Read error : 0 Jitter error (maybe fixed) : 0 Retry sector count : 0 Damaged sector count : 0

Track 05 Filename : /Year Of The Goat - Angels' Necropolis (2012) [FLAC]/05 Voice of a Dragon.flac

Track gain : -8.73 dB Peak : 0.963715 CRC32 hash (test run) : 8B89ED40 CRC32 hash : 8B89ED40 CRC32 hash (skip zero) : 65DDDBC6 AccurateRip v1 signature : 4B60402E AccurateRip v2 signature : 60E59FA0 ->Track not present in AccurateRip database. Statistics Read error : 0 Jitter error (maybe fixed) : 0 Retry sector count : 0 Damaged sector count : 0

Track 06 Filename : /Year Of The Goat - Angels' Necropolis (2012) [FLAC]/06 This Will Be Mine.flac

Track gain : -9.47 dB Peak : 0.963715 CRC32 hash (test run) : 7483B484 CRC32 hash : 7483B484 CRC32 hash (skip zero) : 6D96172F AccurateRip v1 signature : 3231A5A1 AccurateRip v2 signature : A69EE7DE ->Track not present in AccurateRip database. Statistics Read error : 0 Jitter error (maybe fixed) : 0 Retry sector count : 0 Damaged sector count : 0

Track 07 Filename : /Year Of The Goat - Angels' Necropolis (2012) [FLAC]/07 I'll Die for You.flac

Track gain : -8.94 dB Peak : 0.963715 CRC32 hash (test run) : 86173C57 CRC32 hash : 86173C57 CRC32 hash (skip zero) : B781C733 AccurateRip v1 signature : 93246E17 AccurateRip v2 signature : 86ED549B ->Track not present in AccurateRip database. Statistics Read error : 0 Jitter error (maybe fixed) : 0 Retry sector count : 0 Damaged sector count : 0

Track 08 Filename : /Year Of The Goat - Angels' Necropolis (2012) [FLAC]/08 Thin Lines of Broken Hopes.flac

Track gain : -9.62 dB Peak : 0.963715 CRC32 hash (test run) : 3D28C01A CRC32 hash : 3D28C01A CRC32 hash (skip zero) : F85A71E4 AccurateRip v1 signature : 3D79995A AccurateRip v2 signature : 62D33461 ->Track not present in AccurateRip database. Statistics Read error : 0 Jitter error (maybe fixed) : 0 Retry sector count : 0 Damaged sector count : 0

No errors occurred

End of status report
TITLE "Angels' Necropolis"PERFORMER "Year Of The Goat"REM GENRE "Rock"REM DATE "2012"REM DISCNUMBER 1REM TOTALDISCS 1REM DISCID 6A0BE508REM REPLAYGAIN_ALBUM_GAIN -9.24 dBREM REPLAYGAIN_ALBUM_PEAK 0.963715FILE "01 For the King.flac" WAVE TRACK 01 AUDIO TITLE "For the King" ISRC DENI11200074 REM REPLAYGAIN_TRACK_GAIN -8.70 dB REM REPLAYGAIN_TRACK_PEAK 0.963715 INDEX 01 00:00:00FILE "02 Angels' Necropolis.flac" WAVE TRACK 02 AUDIO TITLE "Angels' Necropolis" ISRC DENI11200075 REM REPLAYGAIN_TRACK_GAIN -9.12 dB REM REPLAYGAIN_TRACK_PEAK 0.963715 INDEX 01 00:00:00FILE "03 Spirits of Fire.flac" WAVE TRACK 03 AUDIO TITLE "Spirits of Fire" ISRC DENI11200076 REM REPLAYGAIN_TRACK_GAIN -8.91 dB REM REPLAYGAIN_TRACK_PEAK 0.963715 INDEX 01 00:00:00FILE "04 A Circle of Serpents.flac" WAVE TRACK 04 AUDIO TITLE "A Circle of Serpents" ISRC DENI11200077 REM REPLAYGAIN_TRACK_GAIN -8.65 dB REM REPLAYGAIN_TRACK_PEAK 0.963715 INDEX 01 00:00:00FILE "05 Voice of a Dragon.flac" WAVE TRACK 05 AUDIO TITLE "Voice of a Dragon" ISRC DENI11200078 REM REPLAYGAIN_TRACK_GAIN -8.73 dB REM REPLAYGAIN_TRACK_PEAK 0.963715 INDEX 01 00:00:00FILE "06 This Will Be Mine.flac" WAVE TRACK 06 AUDIO TITLE "This Will Be Mine" ISRC DENI11200079 REM REPLAYGAIN_TRACK_GAIN -9.47 dB REM REPLAYGAIN_TRACK_PEAK 0.963715 INDEX 01 00:00:00FILE "07 I'll Die for You.flac" WAVE TRACK 07 AUDIO TITLE "I'll Die for You" ISRC DENI11200080 REM REPLAYGAIN_TRACK_GAIN -8.94 dB REM REPLAYGAIN_TRACK_PEAK 0.963715 INDEX 01 00:00:00FILE "08 Thin Lines of Broken Hopes.flac" WAVE TRACK 08 AUDIO TITLE "Thin Lines of Broken Hopes" ISRC DENI11200081 REM REPLAYGAIN_TRACK_GAIN -9.62 dB REM REPLAYGAIN_TRACK_PEAK 0.963715 INDEX 01 00:00:00



Трекер:  [ 23-Дек-2012 11:54 ]

  

Скачать .torrent

Размер .torrent файла 14 KB


Размер: 345 MB
Хэш (hash) релиза: 7b2c8976eaedffbb14a08b10c0cba7504572ff47

Еще никто не оставлял запись к записи скачать торрент Year of the Goat - Angels Necropolis - 2012, FLAC . Будь первым!

!Обратная связь