Скачать через торрент музыку Slaughter - The Wild Life - 1992, APE бесплатно без регистрации torrent

Если у вас наблюдаются проблемы со скриншотами, переходом по ссылками, скачиванием торрентов - проблемы в блокировщике рекламы AdBlock. #хорошегоДня!


Статистика раздачи
Размер:  460 MB   |    Зарегистрирован:  4 года 11 месяцев   |    .torrent скачан:  10 раз   |   
Раздают:  1  
   
Загрузка...
 
Автор Сообщение

Galfimbul

avatar Galfimbul


Slaughter / The Wild Life
Жанр: Hard Rock
Страна-производитель диска: Canada
Год издания: 1992
Издатель (лейбл): Chrysalis Records
Номер по каталогу: CF2 21911
Страна: USA
Аудиокодек: APE (*.ape)
Тип рипа: image+.cue
Битрейт аудио: lossless
Продолжительность: 63:17
Источник (релизер): Свой рип с оригинального CD
Наличие сканов в содержимом раздачи: да
Треклист:
01. Reach For The Sky
02. Out For Love
03. The Wild Life
04. Days Gone By
05. Dance For Me Baby
06. Times They Change
07. Move To The Music
08. Real Love
09. Shake This Place
10. Streets Of Broken Hearts
11. Hold On
12. Do Ya Know
13. Old Man
14. Days Gone By

Personnel:
Mark Slaughter - vocals, guitars
Dana Strum - bass
Blas Elias - drums
Jeff Blando - guitars

Exact Audio Copy V0.99 prebeta 4 from 23. January 2008

Отчёт EAC об извлечении, выполненном 19. декабря 2012, 21:17

Slaughter / The Wild Life

Дисковод: ASUS DRW-22B2L b Adapter: 0 ID: 0

Режим чтения : ДостоверностьИспользование точного потока : ДаОтключение кэша аудио : ДаИспользование указателей C2 : Нет

Коррекция смещения при чтении : 6Способность читать области Lead-in и Lead-out : НетЗаполнение пропущенных сэмплов тишиной : ДаУдаление блоков с тишиной в начале и конце : НетПри вычислениях CRC использовались нулевые сэмплы : ДаИнтерфейс : Встроенный Win32-интерфейс для Win NT/2000

Выходной формат : Внутренние WAV-операцииФормат сэмплов : 44.100 Гц; 16 бит; стерео

TOC извлечённого CD

Трек | Старт | Длительность | Начальный сектор | Конечный сектор --------------------------------------------------------------------- 1 | 0:00.32 | 5:30.50 | 32 | 24831 2 | 5:31.07 | 3:31.73 | 24832 | 40729 3 | 9:03.05 | 3:24.27 | 40730 | 56056 4 | 12:27.32 | 4:34.48 | 56057 | 76654 5 | 17:02.05 | 3:20.27 | 76655 | 91681 6 | 20:22.32 | 7:07.23 | 91682 | 123729 7 | 27:29.55 | 4:37.72 | 123730 | 144576 8 | 32:07.52 | 3:40.05 | 144577 | 161081 9 | 35:47.57 | 3:36.68 | 161082 | 177349 10 | 39:24.50 | 4:39.30 | 177350 | 198304 11 | 44:04.05 | 3:55.65 | 198305 | 215994 12 | 47:59.70 | 6:25.22 | 215995 | 244891 13 | 54:25.17 | 5:26.10 | 244892 | 269351 14 | 59:51.27 | 3:25.65 | 269352 | 284791

Характеристики диапазона извлечения и сообщения об ошибках

Выбранный диапазон

Имя файла D:\booddoom\Slaughter - The Wild Life.wav

Пиковый уровень 100.0 % Качество диапазона 100.0 % CRC теста 87BB1903 CRC копии 87BB1903 Копирование... OK

Ошибок не произошло

AccurateRip: сводка

Трек 1 точное извлечение (доверие 1) [6B5978B4]Трек 2 точное извлечение (доверие 1) [EB6109B9]Трек 3 точное извлечение (доверие 1) [25655628]Трек 4 точное извлечение (доверие 1) [45573FDB]Трек 5 точное извлечение (доверие 1) [DE7A4768]Трек 6 точное извлечение (доверие 1) [BA07EED3]Трек 7 точное извлечение (доверие 1) [69710AEE]Трек 8 точное извлечение (доверие 1) [0F31A970]Трек 9 точное извлечение (доверие 1) [A93BB4BA]Трек 10 точное извлечение (доверие 1) [825116F6]Трек 11 точное извлечение (доверие 1) [6B9C1BB6]Трек 12 точное извлечение (доверие 1) [6CA4BE6C]Трек 13 точное извлечение (доверие 1) [CE4A53F6]Трек 14 точное извлечение (доверие 1) [3B55A936]

Все треки извлечены точно

Конец отчёта


Трекер:  [ 23-Дек-2012 11:56 ]

  

Скачать .torrent

Размер .torrent файла 19 KB


Размер: 460 MB
Хэш (hash) релиза: aeb254de36e8c413e0bc4b8c89d7d9361b98cbeb

Еще никто не оставлял запись к записи скачать торрент Slaughter - The Wild Life - 1992, APE . Будь первым!

!Обратная связь