Скачать через торрент музыку Magna Carta - Lord Of The Ages - 1973 бесплатно без регистрации torrent

Если у вас наблюдаются проблемы со скриншотами, переходом по ссылками, скачиванием торрентов - проблемы в блокировщике рекламы AdBlock. #хорошегоДня!


Статистика раздачи
Размер:  334 MB   |    Зарегистрирован:  4 года 11 месяцев   |    .torrent скачан:  24 раза   |   
Раздают:  1  
   
Загрузка...
 
Автор Сообщение

Galfimbul

avatar Galfimbul


Magna Carta / Lord Of The Ages

Жанр: Progressive Folk, Contemporary Folk
Страна-производитель диска: UK
Год издания: 1973
Издатель (лейбл): Repertoire Records
Номер по каталогу: REPUK 1100
Страна: UK
Аудиокодек: FLAC (*.flac)
Тип рипа: tracks+.cue
Битрейт аудио: lossless
Продолжительность: 00:36:22
Источник (релизер): Свой диск
Наличие сканов в содержимом раздачи: да
Треклист:
. 01. Magna Carta - Wish It Was - 03:35
. 02. Magna Carta - Two Old Friends - 03:33
. 03. Magna Carta - Lord Of The Ages - 09:59
. 04. Magna Carta - Isn't It Funny (And Not A Little Bit Strange) - 02:33
. 05. Magna Carta - Song Of Evening - 03:44
. 06. Magna Carta - Father John - 06:42
. 07. Magna Carta - That Was Yesterday - 03:24
. 08. Magna Carta - Falkland Grene - 02:48
Exact Audio Copy V1.0 beta 3 from 29. August 2011

Отчёт EAC об извлечении, выполненном 23. декабря 2012, 13:09

Magna Carta / Lord Of The Ages

Дисковод: ASUS DRW-24B3ST Adapter: 4 ID: 0

Режим чтения : ДостоверностьИспользование точного потока : ДаОтключение кэша аудио : ДаИспользование указателей C2 : Нет

Коррекция смещения при чтении : 6Способность читать области Lead-in и Lead-out : НетЗаполнение пропущенных сэмплов тишиной : ДаУдаление блоков с тишиной в начале и конце : НетПри вычислениях CRC использовались нулевые сэмплы : ДаИнтерфейс : Встроенный Win32-интерфейс для Win NT/2000Обработка зазоров : Добавлено к предыдущему треку

Выходной формат : Пользовательский кодировщикВыбранный битрейт : 128 kBit/sКачество : ВысокийДобавление ID3-тега : НетУтилита сжатия : C:\Program Files\Exact Audio Copy\Flac\flac.exeДополнительные параметры : -V -8 -T "Date=%year%" -T "Genre=%genre%" %source%

TOC извлечённого CD

Трек | Старт | Длительность | Начальный сектор | Конечный сектор --------------------------------------------------------------------- 1 | 0:00.00 | 3:35.52 | 0 | 16176 2 | 3:35.52 | 3:33.35 | 16177 | 32186 3 | 7:09.12 | 9:59.28 | 32187 | 77139 4 | 17:08.40 | 2:33.18 | 77140 | 88632 5 | 19:41.58 | 3:44.74 | 88633 | 105506 6 | 23:26.57 | 6:42.36 | 105507 | 135692 7 | 30:09.18 | 3:24.26 | 135693 | 151018 8 | 33:33.44 | 2:48.38 | 151019 | 163656

Трек 1

Имя файла C:\Documents and Settings\Sergei\Мои документы\Моя музыка\EAC\01. Magna Carta - Wish It Was.wav

Длина предзазора 0:00:02.00

Пиковый уровень 98.8 % Скорость извлечения 4.9 X Качество трека 100.0 % CRC теста 8AF04901 CRC копии 8AF04901 Точное извлечение (достоверность 2) [ACD9BE96] (AR v2) Копирование... OK

Трек 2

Имя файла C:\Documents and Settings\Sergei\Мои документы\Моя музыка\EAC\02. Magna Carta - Two Old Friends.wav

Длина предзазора 0:00:01.59

Пиковый уровень 98.8 % Скорость извлечения 4.7 X Качество трека 99.9 % CRC теста 380CA2F5 CRC копии 380CA2F5 Точное извлечение (достоверность 2) [FF1A3922] (AR v2) Копирование... OK

Трек 3

Имя файла C:\Documents and Settings\Sergei\Мои документы\Моя музыка\EAC\03. Magna Carta - Lord Of The Ages.wav

Длина предзазора 0:00:01.59

Пиковый уровень 98.8 % Скорость извлечения 6.8 X Качество трека 100.0 % CRC теста EF21FAB3 CRC копии EF21FAB3 Точное извлечение (достоверность 2) [EE0DDB10] (AR v2) Копирование... OK

Трек 4

Имя файла C:\Documents and Settings\Sergei\Мои документы\Моя музыка\EAC\04. Magna Carta - Isn't It Funny (And Not A Little Bit Strange).wav

Длина предзазора 0:00:01.59

Пиковый уровень 98.8 % Скорость извлечения 6.4 X Качество трека 100.0 % CRC теста 0CDCFF4F CRC копии 0CDCFF4F Точное извлечение (достоверность 2) [FE27874B] (AR v2) Копирование... OK

Трек 5

Имя файла C:\Documents and Settings\Sergei\Мои документы\Моя музыка\EAC\05. Magna Carta - Song Of Evening.wav

Длина предзазора 0:00:01.59

Пиковый уровень 98.7 % Скорость извлечения 7.2 X Качество трека 100.0 % CRC теста B5DFFB74 CRC копии B5DFFB74 Точное извлечение (достоверность 2) [75F8690B] (AR v2) Копирование... OK

Трек 6

Имя файла C:\Documents and Settings\Sergei\Мои документы\Моя музыка\EAC\06. Magna Carta - Father John.wav

Длина предзазора 0:00:01.59

Пиковый уровень 98.8 % Скорость извлечения 8.2 X Качество трека 100.0 % CRC теста C060E045 CRC копии C060E045 Точное извлечение (достоверность 2) [36F397EF] (AR v2) Копирование... OK

Трек 7

Имя файла C:\Documents and Settings\Sergei\Мои документы\Моя музыка\EAC\07. Magna Carta - That Was Yesterday.wav

Длина предзазора 0:00:01.59

Пиковый уровень 98.8 % Скорость извлечения 8.0 X Качество трека 100.0 % CRC теста 5421E66B CRC копии 5421E66B Точное извлечение (достоверность 2) [464F809E] (AR v2) Копирование... OK

Трек 8

Имя файла C:\Documents and Settings\Sergei\Мои документы\Моя музыка\EAC\08. Magna Carta - Falkland Grene.wav

Длина предзазора 0:00:01.59

Пиковый уровень 98.8 % Скорость извлечения 7.9 X Качество трека 100.0 % CRC теста 39BBEED4 CRC копии 39BBEED4 Точное извлечение (достоверность 2) [C60369F1] (AR v2) Копирование... OK

Все треки извлечены точно

Ошибок не произошло

Конец отчёта

==== Контрольная сумма отчёта 834A503B06FD51C50AFC42275F312122341A5C85F82DDEDD4024BCE14492CAFD ====
REM GENRE Folk/RockREM DATE 1973REM DISCID 45088608REM COMMENT "ExactAudioCopy v1.0b3"PERFORMER "Magna Carta"TITLE "Lord Of The Ages"FILE "01. Magna Carta - Wish It Was.wav" WAVE TRACK 01 AUDIO TITLE "Magna Carta - Wish It Was" PERFORMER "Magna Carta" INDEX 01 00:00:00 TRACK 02 AUDIO TITLE "Magna Carta - Two Old Friends" PERFORMER "Magna Carta" INDEX 00 03:33:68FILE "02. Magna Carta - Two Old Friends.wav" WAVE INDEX 01 00:00:00 TRACK 03 AUDIO TITLE "Magna Carta - Lord Of The Ages" PERFORMER "Magna Carta" INDEX 00 03:31:51FILE "03. Magna Carta - Lord Of The Ages.wav" WAVE INDEX 01 00:00:00 TRACK 04 AUDIO TITLE "Magna Carta - Isn't It Funny (And Not A Little Bit Strange)" PERFORMER "Magna Carta" INDEX 00 09:57:44FILE "04. Magna Carta - Isn't It Funny (And Not A Little Bit Strange).wav" WAVE INDEX 01 00:00:00 TRACK 05 AUDIO TITLE "Magna Carta - Song Of Evening" PERFORMER "Magna Carta" INDEX 00 02:31:34FILE "05. Magna Carta - Song Of Evening.wav" WAVE INDEX 01 00:00:00 TRACK 06 AUDIO TITLE "Magna Carta - Father John" PERFORMER "Magna Carta" INDEX 00 03:43:15FILE "06. Magna Carta - Father John.wav" WAVE INDEX 01 00:00:00 TRACK 07 AUDIO TITLE "Magna Carta - That Was Yesterday" PERFORMER "Magna Carta" INDEX 00 06:40:52FILE "07. Magna Carta - That Was Yesterday.wav" WAVE INDEX 01 00:00:00 TRACK 08 AUDIO TITLE "Magna Carta - Falkland Grene" PERFORMER "Magna Carta" INDEX 00 03:22:42FILE "08. Magna Carta - Falkland Grene.wav" WAVE INDEX 01 00:00:00
Доп. информация: http://rateyourmusic.com/artist/magna_carta
Chris Simpson - Guitar and Vocals

Glen Stuart - Vocals and Spoken Word

Stan Gordon - Guitar and Vocals


Трекер:  [ 10-Янв-2013 11:04 ]

  

Скачать .torrent

Размер .torrent файла 14 KB


Размер: 334 MB
Хэш (hash) релиза: 46e1314b5a58dabc4d4cb6dff44ddbdad01f7f23

Еще никто не оставлял запись к записи скачать торрент Magna Carta - Lord Of The Ages - 1973 . Будь первым!

!Обратная связь