Скачать через торрент музыку Seompi - Awol - 1970 бесплатно без регистрации torrent

Если у вас наблюдаются проблемы со скриншотами, переходом по ссылками, скачиванием торрентов - проблемы в блокировщике рекламы AdBlock. #хорошегоДня!


Статистика раздачи
Размер:  415 MB   |    Зарегистрирован:  4 года 10 месяцев   |    .torrent скачан:  28 раз   |   
Раздают:  1  
   
Загрузка...
 
Автор Сообщение

Galfimbul

avatar Galfimbul


Seompi - Awol

Жанр: Acid Rock, Psychedelic Rock
Страна-производитель диска: USA
Год издания диска: 1999
Издатель (лейбл): Gear Fab Records
Номер по каталогу: GF-136
Страна: USA
Аудиокодек: FLAC (*.flac)
Тип рипа: image+.cue
Битрейт аудио: lossless
Продолжительность: 01:17:53
Источник (релизер): Larry
Наличие сканов в содержимом раздачи:
Треклист:

01. Summer's Coming on Heavy 03:43
02. Slide, Slide 03:25
03. Almost in the Hole 03:39
04. Lay on the Floor 03:14
05. Kittens 03:59
06. A.W.O.L 06:02
07. A Question of Nobility 07:10
08. Voodoo Child (Slight Return) 07:04
09. Summer's Comin' on Heavy 03:26
10. Slide, Slide 04:46
11. Almost in the Hole 03:21
12. Lay on the Floor 03:11
13. And I Ain't Seen Him Since 05:55
14. Do You Not Know? 03:43
15. Sticky Situation 07:22
16. Elijah 02:58
17. What Is the Reason? 04:48
Exact Audio Copy V1.0 beta 3 from 29. August 2011

EAC extraction logfile from 20. January 2013, 14:00

Seompi / A.W.O.L

Used drive : Optiarc DVD RW AD-7250H Adapter: 1 ID: 0

Read mode : SecureUtilize accurate stream : YesDefeat audio cache : YesMake use of C2 pointers : No

Read offset correction : 48Overread into Lead-In and Lead-Out : NoFill up missing offset samples with silence : YesDelete leading and trailing silent blocks : NoNull samples used in CRC calculations : YesUsed interface : Native Win32 interface for Win NT & 2000

Used output format : User Defined EncoderSelected bitrate : 896 kBit/sQuality : HighAdd ID3 tag : NoCommand line compressor : C:\Program Files (x86)\FLAC\flac.exeAdditional command line options : -8 -V -T "ARTIST=%artist%" -T "TITLE=%title%" -T "ALBUM=%albumtitle%" -T "DATE=%year%" -T "TRACKNUMBER=%tracknr%" -T "GENRE=%genre%" %source%

TOC of the extracted CD

Track | Start | Length | Start sector | End sector --------------------------------------------------------- 1 | 0:00.00 | 3:43.60 | 0 | 16784 2 | 3:43.60 | 3:25.15 | 16785 | 32174 3 | 7:09.00 | 3:39.12 | 32175 | 48611 4 | 10:48.12 | 3:14.10 | 48612 | 63171 5 | 14:02.22 | 3:59.23 | 63172 | 81119 6 | 18:01.45 | 6:02.10 | 81120 | 108279 7 | 24:03.55 | 7:10.17 | 108280 | 140546 8 | 31:13.72 | 7:04.18 | 140547 | 172364 9 | 38:18.15 | 3:26.52 | 172365 | 187866 10 | 41:44.67 | 4:46.03 | 187867 | 209319 11 | 46:30.70 | 3:21.47 | 209320 | 224441 12 | 49:52.42 | 3:11.48 | 224442 | 238814 13 | 53:04.15 | 5:55.50 | 238815 | 265489 14 | 58:59.65 | 3:43.52 | 265490 | 282266 15 | 62:43.42 | 7:22.33 | 282267 | 315449 16 | 70:06.00 | 2:58.20 | 315450 | 328819 17 | 73:04.20 | 4:48.57 | 328820 | 350476

Range status and errors

Selected range

Filename F:\cdrive\Music Rip\Seompi\Seompi - Awol - FLAC\Seompi - A.W.O.L.wav

Peak level 99.9 % Extraction speed 0.2 X Range quality 100.0 % Test CRC 2179817C Copy CRC 2179817C Copy OK

No errors occurred

AccurateRip summary

Track 1 not present in databaseTrack 2 not present in databaseTrack 3 not present in databaseTrack 4 not present in databaseTrack 5 not present in databaseTrack 6 not present in databaseTrack 7 not present in databaseTrack 8 not present in databaseTrack 9 not present in databaseTrack 10 not present in databaseTrack 11 not present in databaseTrack 12 not present in databaseTrack 13 not present in databaseTrack 14 not present in databaseTrack 15 not present in databaseTrack 16 not present in databaseTrack 17 not present in database

None of the tracks are present in the AccurateRip database

End of status report
REM GENRE Pop-RockREM DATE 1999REM DISCID F2124111REM COMMENT "ExactAudioCopy v1.0b3"PERFORMER "Seompi"TITLE "A.W.O.L"FILE "Seompi - A.W.O.L.flac" WAVE TRACK 01 AUDIO TITLE "Summer's Coming on Heavy" PERFORMER "Seompi" INDEX 01 00:00:00 TRACK 02 AUDIO TITLE "Slide, Slide" PERFORMER "Seompi" INDEX 00 03:41:02 INDEX 01 03:43:60 TRACK 03 AUDIO TITLE "Almost in the Hole" PERFORMER "Seompi" INDEX 00 07:06:25 INDEX 01 07:09:00 TRACK 04 AUDIO TITLE "Lay on the Floor" PERFORMER "Seompi" INDEX 00 10:44:65 INDEX 01 10:48:12 TRACK 05 AUDIO TITLE "Kittens" PERFORMER "Seompi" INDEX 00 13:58:72 INDEX 01 14:02:22 TRACK 06 AUDIO TITLE "A.W.O.L" PERFORMER "Seompi" INDEX 00 17:58:40 INDEX 01 18:01:45 TRACK 07 AUDIO TITLE "A Question of Nobility" PERFORMER "Seompi" INDEX 00 24:01:02 INDEX 01 24:03:55 TRACK 08 AUDIO TITLE "Voodoo Child (Slight Return)" PERFORMER "Seompi" INDEX 00 31:11:00 INDEX 01 31:13:72 TRACK 09 AUDIO TITLE "Summer's Comin' on Heavy" PERFORMER "Seompi" INDEX 00 38:15:32 INDEX 01 38:18:15 TRACK 10 AUDIO TITLE "Slide, Slide" PERFORMER "Seompi" INDEX 00 41:42:05 INDEX 01 41:44:67 TRACK 11 AUDIO TITLE "Almost in the Hole" PERFORMER "Seompi" INDEX 00 46:28:05 INDEX 01 46:30:70 TRACK 12 AUDIO TITLE "Lay on the Floor" PERFORMER "Seompi" INDEX 00 49:49:72 INDEX 01 49:52:42 TRACK 13 AUDIO TITLE "And I Ain't Seen Him Since" PERFORMER "Seompi" INDEX 00 53:02:15 INDEX 01 53:04:15 TRACK 14 AUDIO TITLE "Do You Not Know?" PERFORMER "Seompi" INDEX 00 58:57:47 INDEX 01 58:59:65 TRACK 15 AUDIO TITLE "Sticky Situation" PERFORMER "Seompi" INDEX 00 62:40:70 INDEX 01 62:43:42 TRACK 16 AUDIO TITLE "Elijah" PERFORMER "Seompi" INDEX 00 70:03:42 INDEX 01 70:06:00 TRACK 17 AUDIO TITLE "What Is the Reason?" PERFORMER "Seompi" INDEX 00 73:01:42 INDEX 01 73:04:20
-----------------------

DON'T MODIFY THIS FILE

-----------------------

PERFORMER: auCDtect Task Manager, ver. 1.5.1RC4 build 1.5.1.5Copyright (c) 2008-2010 y-soft. All rights reservedhttp://y-soft.org

ANALYZER: auCDtect: CD records authenticity detector, version 0.8.2Copyright (c) 2004 Oleg Berngardt. All rights reserved.Copyright (c) 2004 Alexander Djourik. All rights reserved.

FILE: Seompi - A.W.O.L.flac Size: 421028311 Hash: E2DC31A2DE0DA4D5AF6F81AE270517F3 Accuracy: -m8 Conclusion: MPEG 97% Signature: 1FCD419639FD82FF74727964C87DC431945B18F9
Доп. информация:
Dave Williams - Bass
Patrick Rockhill - Bass
Bill Reid - Drums
Mitch Watkins - Guitar
Billy "Skid" Rowe - Guitar
Lee Manley - Drums
Техасская Хард-Хэви-рок группа, восставшая из пепла "The Headstones and The Meat". Единственный альбом, сыгранный в духе (смеси) "Josephus", "Mariani", "ZZ Top" с наплывом рифов асида...


Трекер:  [ 24-Янв-2013 10:54 ]

  

Скачать .torrent

Размер .torrent файла 17 KB


Размер: 415 MB
Хэш (hash) релиза: 395e3ac6586085e6d29f6c708d5c3f336505b5d5

Еще никто не оставлял запись к записи скачать торрент Seompi - Awol - 1970 . Будь первым!

!Обратная связь