Скачать через торрент Эрго Прокси Ergo Proxy бесплатно Аниме Все серии на русском torrent

Если у вас наблюдаются проблемы со скриншотами, переходом по ссылками, скачиванием торрентов - проблемы в блокировщике рекламы AdBlock. #хорошегоДня!


Статистика раздачи
Размер:  1.31 GB   |    Зарегистрирован:  4 года 10 месяцев   |    .torrent скачан:  42 раза   |   
Раздают:  1  
   
Загрузка...
 
Автор Сообщение

Galfimbul

avatar Galfimbul


Эрго Прокси / Ergo Proxy

Страна: Япония
Год выпуска: 2006 г.
Жанр: приключения, фантастика, драма
Тип: TV
Продолжительность: 23 эп. по 25 мин.
Режиссер: Мурасэ Сюко
Студия: Manglobe Inc.

Описание: В пустынном обезлюдевшем мире выжить можно лишь в городе-куполе, и Ромдо – одно из немногих мест, где сохранилась цивилизация. Но для поддержания порядка нужна крепкая рука, поэтому властью в Ромдо распоряжается не дряхлый наместник Донов Мейер, а четыре Советника-робота. Однако даже роботам нельзя доверять – с тех пор, как загадочный вирус Когито начал превращать послушных механических слуг в бунтовщиков и даже убийц.

Внучка наместника Рил берётся за расследование: необходимо выяснить, что стало причиной вируса, и кто его распространяет. Вскоре и сама Рил подвергается нападению, а в круг подозреваемых попадает скромный юноша, которого она почти не знает – Винсент Лоу, бывший иммигрант, а ныне кандидат на звание примерного граждана. Его причастность сомнительна, но одно бесспорно: именно за Винсентом охотится странное чудовище, устроившее резню посреди города.

В поисках ответа Винсент покидает Ромдо и вместе с заражённым роботом-девочкой Пино отправляется к своему родному городу, когда-то разрушенному по неизвестной причине. Рил следует за ним – по умирающему миру, где каждая разгадка порождает новые тайны, и где создатели куполов боги-прокси молят о смерти Эрго Прокси – единственного, кто может даровать им покой...

© Расселл Д. Джонс, World Art

Качество: BDRip
Тип релиза: Без хардсаба
Формат видео: MKV
Релиз/Автор рипа: Oztay45
Совместимость с бытовыми плеерами: Да
Видео: h264, 1280x720, 2800 kbps, 23,976 fps, 8 bit
Аудио: AC3, 384 Kbps, 48000Hz, 6ch Язык Русский (в составе контейнера) ; Озвучка: MC Entertainment
Аудио 2: AC3, 448 Kbps, 48000Hz, 6ch Язык Японский (в составе контейнера)
Субтитры: ass, встроенные Язык субтитров русский ; Перевод: MC Entertainment
Субтитры 2: srt, внешние Язык субтитров русский ; Перевод 2: MC Entertainment
[pre]General
Unique ID : 179003550936793122945171415915798772678 (0x86AAD473AD27A056BC4954B27B6CBBC6)
Complete name : C:\Users\Oztay45\Desktop\Ergo.Proxy.e01 (1) (1).mkv
Format : Matroska
Format version : Version 4 / Version 2
File size : 671 MiB
Duration : 25mn 45s
Overall bit rate : 3 642 Kbps
Encoded date : UTC 2013-02-04 12:55:48
Writing application : mkvmerge v6.0.0 ('Coming Up For Air') built on Jan 20 2013 09:52:00
Writing library : libebml v1.3.0 + libmatroska v1.4.0
Attachment : Yes / Yes / Yes / Yes / Yes / Yes / Yes / Yes / Yes / Yes / Yes / Yes / Yes / Yes / Yes / Yes

Video
ID : 1
Format : AVC
Format/Info : Advanced Video Codec
Format profile : <a href="mailto:High@L4.1" class="postLink">High@L4.1</a>
Format settings, CABAC : Yes
Format settings, ReFrames : 6 frames
Codec ID : V_MPEG4/ISO/AVC
Duration : 25mn 45s
Bit rate : 2 800 Kbps
Width : 1 280 pixels
Height : 720 pixels
Display aspect ratio : 16:9
Frame rate mode : Constant
Frame rate : 23.976 fps
Color space : YUV
Chroma subsampling : 4:2:0
Bit depth : 8 bits
Scan type : Progressive
Bits/(Pixel*Frame) : 0.127
Stream size : 504 MiB (75%)
Writing library : x264 core 129 r2230 1cffe9f
Encoding settings : cabac=1 / ref=6 / deblock=1:1:1 / analyse=0x3:0x113 / me=hex / subme=7 / psy=1 / psy_rd=0.40:0.00 / mixed_ref=1 / me_range=16 / chroma_me=1 / trellis=1 / 8x8dct=1 / cqm=0 / deadzone=21,11 / fast_pskip=1 / chroma_qp_offset=-2 / threads=6 / lookahead_threads=1 / sliced_threads=0 / nr=0 / decimate=1 / interlaced=0 / bluray_compat=0 / constrained_intra=0 / bframes=5 / b_pyramid=2 / b_adapt=1 / b_bias=0 / direct=1 / weightb=1 / open_gop=0 / weightp=2 / keyint=240 / keyint_min=23 / scenecut=40 / intra_refresh=0 / rc_lookahead=40 / rc=2pass / mbtree=1 / bitrate=2800 / ratetol=1.0 / qcomp=0.60 / qpmin=0 / qpmax=69 / qpstep=4 / cplxblur=20.0 / qblur=0.5 / ip_ratio=1.40 / aq=1:0.60
Language : English
Default : Yes
Forced : No

Audio #1
ID : 2
Format : AC-3
Format/Info : Audio Coding 3
Mode extension : CM (complete main)
Format settings, Endianness : Big
Codec ID : A_AC3
Duration : 25mn 45s
Bit rate mode : Constant
Bit rate : 384 Kbps
Channel(s) : 6 channels
Channel positions : Front: L C R, Side: L R, LFE
Sampling rate : 48.0 KHz
Bit depth : 16 bits
Compression mode : Lossy
Stream size : 70.7 MiB (11%)
Title : Русский AC3, 6ch 384 kbps (многоголосый, MC Entertainment)
Language : Russian
Default : Yes
Forced : No

Audio #2
ID : 3
Format : AC-3
Format/Info : Audio Coding 3
Mode extension : CM (complete main)
Format settings, Endianness : Big
Codec ID : A_AC3
Duration : 25mn 45s
Bit rate mode : Constant
Bit rate : 448 Kbps
Channel(s) : 6 channels
Channel positions : Front: L C R, Side: L R, LFE
Sampling rate : 44.1 KHz
Bit depth : 16 bits
Compression mode : Lossy
Stream size : 82.5 MiB (12%)
Title : Японский AC3, 6ch 448 kbps
Language : Japanese
Default : No
Forced : No

Text
ID : 4
Format : ASS
Codec ID : S_TEXT/ASS
Codec ID/Info : Advanced Sub Station Alpha
Compression mode : Lossless
Title : MC Entertainment
Language : Russian
Default : No
Forced : No

Menu
00:00:00.000 : en:00:00:00.000
00:04:52.792 : en:00:04:52.792
00:14:35.040 : en:00:14:35.040
00:24:00.063 : en:00:24:00.063
00:25:30.028 : en:00:25:30.028
File: C:\Users\Oztay45\Desktop\Ergo Proxy 01.mkv Duration: 00:25:45 (1545.02) - WARNING: Differs from video duration! (0.94 sec) Track #1: video lang: Unknown (1) codc: V_MPEG4/ISO/AVC -> H264/AVC (22) reso: 1280x720 -> 16:9 fram: 23.976025 fps rate: 2801 kbps (2800.937744) dura: 00:25:44 (1544.083984) size: 515.57 MB (540610440) Track #2: audio (￐ᅠ￑テ￑チ￑チ￐ᄎ￐ᄌ￐ᄍ AC3, 6ch 384 kbps (￐ᄐ￐ᄑ￐ᄒ￐ᄈ￐ᄒ￐ᄈ￐ᄒ￐ᄏ￐ᄒ￑チ￑ヒ￐ᄍ, MC Entertainment)) lang: rus -> Russian (15) codc: A_AC3 -> AC3 (2) chan: 6 -> 5.1 Surround samp: 48000 Hz rate: 384 kbps (384.08) dura: 00:25:44 (1543.90) size: 70.69 MB (74122812) Track #3: audio (￐ᆵ￐﾿￐ᄒ￐ᄑ￑チ￐ᄎ￐ᄌ￐ᄍ AC3, 6ch 448 kbps) lang: jpn -> Japanese (2) codc: A_AC3 -> AC3 (2) chan: 6 -> 5.1 Surround samp: 44100 Hz rate: 448 kbps (448.28) dura: 00:25:44 (1544.05) size: 82.51 MB (86520126) Track #4: subtitles (MC Entertainment) lang: rus -> Russian (15) type: S_TEXT/ASS -> ASS (5) size: 20.68 KB (21181) Sizes: (check sanity) disk: 670.84 MB (703428363) atts: 1.68 MB (1764256) trac: 668.79 MB (701274559) [based on track size] bitr: 668.78 MB (701264015) [based on bitrate] tdif: 380.42 KB (389548) 0.05% bdif: 390.71 KB (400091) 0.05%
01. Awakening
02. Confession


Трекер:  [ 05-Фев-2013 11:24 ]

  

Скачать .torrent

Размер .torrent файла 14 KB


Размер: 1.31 GB
Хэш (hash) релиза: 895c39d0bbadc1f0b5326d707178a754fb2f9f32
Подписка на обновления:

Торренты, похожие на Эрго Прокси Ergo Proxy скачать торрент

Форум Название Автор Размер S L Добавлен
Аниме | DVD ·· Эрго Прокси / Ergo Proxy (Сюко Мурасэ) (Диски 2-3 из 6) [2006, фантастика, детектив, киберпанк, 2xDVD9] [RUS/JAP+SUB] Galfimbul 1242674995211.57 GB 0 0 1511695862

14:31

26-Ноя-17

Аниме | HD Rips ·· Эрго Прокси / Ergo Proxy [TV] [23 из 23] [Без хардсаба] [RUS(ext),JAP+SUB] [2006, приключения, фантастика, драма, BDRip] [1080p] Galfimbul 5228207327248.69 GB 0 0 1509163321

07:02

28-Окт-17

Аниме | Blu-Ray и BDRemux ·· Эрго Прокси / Ergo Proxy [TV] [23 из 23] [Без хардсаба] [RUS(int) JAP+SUB(int)] [2006 г., приключения, фантастика, драма, BDRemux] [1080p] Polarnik 142791760088132.99 GB 0 0 1397292498

11:48

12-Апр-14

Аниме | HD Rips ·· Эрго Прокси / Ergo Proxy (Мурасэ Сюко) [TV] [23 из 23] [без хардсаба] [RUS(ext), JAP+SUB] [2006 г., приключения, фантастика, драма, BDRip] [720p] Polarnik 2190488128020.4 GB 0 0 1369675621

20:27

27-Май-13

Аниме | Rips ·· Эрго Прокси / Ergo Proxy (Мурасэ Сюко) [TV][23 из 23][без хардсаба][RUS(ext),JAP+SUB][2006 г., драма, киберпанк, приключения, фантастика, DVDRip] L 1699366303115.83 GB 0 0 1364393281

17:08

27-Мар-13

Аниме | HD Rips ·· Эрго Прокси / Ergo Proxy (Мурасэ Сюко) [TV] [23 из 23] [без хардсаба] [JAP+SUB] [2006 г., приключения, фантастика, драма, BDRip] [1080p] L 6865470128963.94 GB 0 0 1364393259

17:07

27-Мар-13

Аниме | HD Rips ·· Эрго Прокси / Ergo Proxy (Мурасэ Сюко) [TV] [без хардсаба] [23 из 23] [JAP+SUB] & [2 из 23] [RUS(ext)] [2006 г., приключения, фантастика, драма, BDRip] [720p] L 2033087704918.93 GB 0 0 1362864155

00:22

10-Мар-13

Аниме | DVD ·· Эрго Прокси / Ergo Proxy [TV] [1-23 из 23][Rus,JAP+SUB][2006][драма, киберпанк, приключения, фантастика][7xDVD9+2xDVD5][Профессиональная] Galfimbul 4495982709641.87 GB 0 0 1317467745

14:15

1-Окт-11

Аниме | DVD ·· Эрго Прокси / Ergo Proxy [TV] [1- 23 из 23] [RUS,JAP+SUB][2006 г., мистерия, фантастика, драма, 10xDVD5][Любительская] Galfimbul 3712541696034.58 GB 0 0 1310318585

20:23

10-Июл-11

Аниме | Rips ·· Эрго Прокси / Ergo Proxy [TV] [1-23 из 23] [RUS(int)][2006 г., приключения, фантастика, драма, DVDRip][Профессиональная] Polarnik 59503843825.54 GB 0 0 1290021228

22:13

17-Ноя-10

Аниме | Rips ·· Эрго Прокси / Ergo Proxy [TV][1-23 из 23][RUS(int),JAP+SUB][2006][драма, киберпанк, приключения, фантастика][DVDRip][Профессиональная] rpoMogpbIH 73990053196.89 GB 0 0 1290021189

22:13

17-Ноя-10

Аниме | HD Rips ·· Эрго прокси / Ergo Proxy [TV] [1-23 из 23] [RUS(int),JAP+SUB] [2006 г., Киберпанк, детектив, фантастика, HDTVRip] [720p] [Профессиональная] Bot 1110306333110.34 GB 0 0 1286481240

22:54

7-Окт-10

Еще никто не оставлял запись к записи скачать торрент Эрго Прокси Ergo Proxy . Будь первым!

!Обратная связь