Скачать через торрент Необъятные небеса OVA IS: Infinite Stratos Encore - Koi ni Kogareru Rokujuusou бесплатно Аниме Все серии на русском torrent

Если у вас наблюдаются проблемы со скриншотами, переходом по ссылками, скачиванием торрентов - проблемы в блокировщике рекламы AdBlock. #хорошегоДня!


Статистика раздачи
Размер:  857 MB   |    Зарегистрирован:  4 года 9 месяцев   |    .torrent скачан:  71 раз   |   
Раздают:  1  
   
Загрузка...
 
Автор Сообщение

Polarnik

avatar Polarnik



Год выпуска: 2011
Страна: Япония
Жанр: приключения, комедия, фантастика, меха, этти
Продолжительность: 1 эп. по 25 мин.
Перевод:

русские субтитры от Hollow & Obelikx (полные/вспомогательные)
Режиссер: Кикути Ясухито
Студия: 8bit
Описание:
В ближайшем будущем в Японии (где же еще?) изобрели чудесный боевой костюм, оператор которого получал огромную силу, скорость, могучую защиту и целый арсенал встроенного оружия. Человек становился подобен универсальному истребителю, потому костюм получил название «Небесный Доспех», сокращенно НД. Если учесть, что пилот мог активировать костюм силой мысли, а талантов хватало в каждой стране, то станет ясно, почему войны прекратились, а НД занял нишу «оружия сдерживания». Теперь работы по его развитию велись под благовидным предлогом «мирного применения», к примеру, в спортивных состязаниях, где участвовали представители всех наций. Точнее, представительницы, поскольку активировать Доспех могли только женщины!

В обществе, целиком зависящем от чудо-техники, снова воцарился матриархат. Но спустя десяток лет с открытия Доспеха мир потрясла новая сенсация – нашелся первый мужчина, способный стать его пилотом! И вот Итика Оримура, 15-летний герой поневоле, стараниями японского правительства поступил в Небесную академию, где учатся самые талантливые пилоты со всего мира. Теперь Итике, единственному парню среди сильных и агрессивных красавиц, нужно постоять за честь безвинно пострадавшего «слабого пола», разобраться с подругами детства, укрепить э-э… международные связи, а еще ведь и учиться когда-то надо!
© Hollow, World Art
Информационные ссылки: AniDB || World Art || MAL
Качество: BDRip
Энкод: Winter - RG Pantheon
Тип видео: без хардсаба
Формат: mkv
Видео: x264 (Hi10p), 1280x720, ~3000 Kbps, 23.976 fps
Аудио JAP: Vorbis, 48000Hz, ~256 Kbps, 2ch
Аудио RUS 1: MP3, 48000Hz, 2ch, ~192 Kbps
Аудио RUS 2,3,5: AAC, 48000Hz, 2ch, ~156-320 Kbps
Аудио RUS 4: Vorbis, 48000Hz, 2ch, ~313 Kbps
Аудио RUS 6: AC3, 48000Hz, 2ch, ~320 Kbps
одноголосая (жен.) от Persona99 (GetSmart)

двухголосая (жен. / муж.) от Eladiel & Lupin (Animedia)
двухголосая (муж. / жен.) от Flame & KroshkaRu (Opendub & SeM)
двухголосая (жен. / муж.) от Phobia & DAKJE (Animespace)
двухголосая (муж. / жен.) от Максим Гардер и Vina (SakuraNight)

многоголосая от Ray, Faraway, Trina D, Nika Lenina, Emeri
Общее
Уникальный идентификатор : 203963413200788358988837640007704843268 (0x9971ECAC500A67E49D516B7592971404)
Полное имя : Z:\Anime\720p\IS - Infinite Stratos OVA [BD] [720p]\[Winter] IS - Infinite Stratos Encore - Koi ni Kogareru Rokujuusou [BDrip 1280x720 x264 Vorbis].mkv
Формат : Matroska
Версия формата : Version 2
Размер файла : 554 Мбайт
Продолжительность : 26 м.
Режим общего битрейта : Переменный
Общий поток : 2885 Кбит/сек
Дата кодирования : UTC 2011-12-13 12:42:14
Программа кодирования : mkvmerge v2.9.7 ('Tenderness') built on Jul 1 2009 18:43:35
Библиотека кодирования : libebml v0.7.7 + libmatroska v0.8.1

Видео
Идентификатор : 1
Формат : AVC
Формат/Информация : Advanced Video Codec
Профиль формата : High 10@L4.1
Параметр CABAC формата : Да
Параметр ReFrames формата : 9 кадров
Идентификатор кодека : V_MPEG4/ISO/AVC
Продолжительность : 26 м.
Битрейт : 2571 Кбит/сек
Ширина : 1280 пикселей
Высота : 720 пикселей
Соотношение сторон : 16:9
Режим частоты кадров : Постоянный
Частота кадров : 23,976 кадра/сек
Цветовое пространство : YUV
Субдискретизация насыщенности : 4:2:0
Битовая глубина : 10 бит
Тип развёртки : Прогрессивная
Бит/(Пиксели*Кадры) : 0.116
Размер потока : 494 Мбайт (89%)
Библиотека кодирования : x264 core 118 r2085+614 d1cc25d
Настройки программы : cabac=1 / ref=9 / deblock=1:-2:-2 / analyse=0x3:0x133 / me=umh / subme=9 / psy=1 / fade_compensate=0.00 / psy_rd=0.80:0.00 / mixed_ref=1 / me_range=24 / chroma_me=1 / trellis=2 / 8x8dct=1 / cqm=0 / deadzone=21,11 / fast_pskip=1 / chroma_qp_offset=-2 / threads=6 / sliced_threads=0 / nr=0 / decimate=0 / interlaced=0 / bluray_compat=0 / constrained_intra=0 / fgo=0 / bframes=8 / b_pyramid=2 / b_adapt=2 / b_bias=0 / direct=1 / weightb=1 / open_gop=0 / weightp=2 / keyint=250 / keyint_min=23 / scenecut=40 / intra_refresh=0 / rc=crf / mbtree=0 / crf=15.8 / qcomp=0.70 / qpmin=9 / qpmax=38 / qpstep=4 / ip_ratio=1.40 / pb_ratio=1.30 / aq=1:0.90 / zones=2200,4353,b=1.5
Default : Да
Forced : Нет

Аудио
Идентификатор : 2
Формат : Vorbis
Параметр Floor формата : 1
Идентификатор кодека : A_VORBIS
Продолжительность : 26 м.
Вид битрейта : Переменный
Битрейт : 256 Кбит/сек
Каналы : 2 канала
Частота : 48,0 КГц
Метод сжатия : С потерями
Размер потока : 49,2 Мбайт (9%)
Библиотека кодирования : libVorbis (Schaufenugget) (20101101 (Schaufenugget))
Язык : Japanese
Default : Да
Forced : Нет




Трекер:  [ 24-Фев-2013 21:37 ]

  

Скачать .torrent

Размер .torrent файла 18 KB


Размер: 857 MB
Хэш (hash) релиза: f1780596f66824f84a489e8380772fe8b7353862
Подписка на обновления:

Еще никто не оставлял запись к записи скачать торрент Необъятные небеса OVA IS: Infinite Stratos Encore - Koi ni Kogareru Rokujuusou . Будь первым!

!Обратная связь