Скачать через торрент музыку Solas - Reunion, A Decade of Solas бесплатно без регистрации torrent

Если у вас наблюдаются проблемы со скриншотами, переходом по ссылками, скачиванием торрентов - проблемы в блокировщике рекламы AdBlock. #хорошегоДня!


Статистика раздачи
Размер:  1.77 GB   |    Зарегистрирован:  4 года 8 месяцев   |    .torrent скачан:  28 раз   |   
Раздают:  1  
   
Загрузка...
 
Автор Сообщение

Galfimbul

avatar Galfimbul


Solas - Reunion, A Decade of Solas

Страна: USA
Жанр: Folk, Irish Traditional, Celtic
Продолжительность: 1:45:03 + 0:43:52
Год выпуска: 2006 г.
Описание: от BlackBear86
Solas – одна из лучших групп, играющих ирландский фолк (возможно, самая признанная американская группа в этом направлении). Они смешивают традиционное и современное звучание.
Если вам знакомо творчество Solas, то это идеальный момент, чтобы слушать снова и снова. Если оно вам незнакомо, то лучший случай, чтобы познакомиться с ним.
Музыкальность сета впечатляет – один великолепный тюн следует за другим, и это не шутки. Непередаваемый дуэт гитар, сменяется настоящим ирландским вокалом Karan Casey, после чего группа исполняет зажигательную смесь из фолка и рока ( The Coconut Dog / Morning Dew). Чтобы в это поверить, это надо услышать!
Solas демонстрирует свое видение ирландского фолка. На DVD можно найти много чего интересного: хоровое женское пение на композиции Reasonland, Seamus Egan приводит зрителей в восторг своей игрой на банджо, флейте и гитаре, а Winnifred Horan демонстрирует виртуозное владение фидлом, играя джиги и рилы, один захватывающий вокал следует за другим.
Solas не просто прямолинейные исполнители ирландской музыки, сыгранной в бешеном темпе, они с успехом осваивают различные направления: Darkness Darkness ( вспомните Youngbloods и Jessie Colin Young), Cold Rain and Snow (The Greatful Dead обыграли этот традиционный тюн на их первом студийном альбоме в 1967) и все, к чему прикасаются музыканты из Solas, получается красиво и интересно.
1. Shola Na nGamhna/Wiggly Jigs [Pancake Tuesday/The Broadwalk/Professor Dilbert's Birthday]
2. Silver Dagger
3. Timmy Clifford's [Timmy Clifford's/The Return Home/O'ot Be Est Da Vong/John Joe Casey's]
4. Newry Highwayman
5. Coconut Dog/Morning Dew
6. Black Annis
7. Who's In The What Now
8. Wind That Shakes The Barley
9. Le Poules Huppes (The Crested Hens)
10. The Big Reels [The Big Reel Of Ballynacally/The High Reel/Flash Away The Pressing Gang]
11. On A Sea Of Fleur De Lis
12. Leslie's March [Gan Anim/The Humours Of Whiskey/Leslie's March]
13. Reasonland
14. Pastures Of Plenty
15. Bird In The Tree [Stride Reel/Willie Bay's Reel/Broderick's/Shiftin' Gravel/Life On The Road/ Bird In The Tree]
16. Nil Na La

Bonus Tracks:
1. Rain and Snow
2. Beaty Spot [O'Dowd's/Beaty Spot/Jessie Over The Bridge/Hughie's Cap]
3. Unquiet Grave
4. Lowground
5. Gossip's [Laurel's Reel/Dougie McDonald's/Dick Gossip's]
6. Erin
7. Darkness Darkness
8. The Flowing Bowl [The Flowing Bowl/Maire Breathnach's/The Doon Reel/Mason's Men]
9. Lament For Frankie
Качество: DVDRip-AVC ([url=http://http://рутраскер/forum/viewtopic.php?t=848859]источник[/url])
Контейнер: MKV
Видео кодек: H.264
Аудио кодек: AC3
Видео: x264, 624x352 (~16:9), 1506 / 1409 kbps (0,29 / 0,27 bpp), 23,98 fps
Аудио: AC3, 2.0, 224 kbps, 48 kHz
Главы: подписаны
Обработка в AviSynth:
DGDecode_MPEG2Source("Video.d2v") 480i30 4:3
AssumeBFF().TFM().TDecimate() # восстанавливаем 24p. Титры (примерно 1,5 минуты) были интерлейсные (в 5 полях 2 фазы движения у съемки, 5 у титров), они децимированы к 24p.
Crop(0,54,0,-58).FillMargins(0,1,0,1) # Отрезаем черные полосы до ~16:9 и замазываем остатки
SMDegrain(ContraSharp=true, RefineMotion=true, LSB_out=true) # Качественный шумодав для сжимаемости
Dither_resize16(624,352,0,1,-0,-1) # Уменьшаем размер до примерной границы детализации. Не забываем, что по 1 пикселю - бывшие черные полосы.
DitherPost() # После шумодава и изменения размера дизеринг вместо округления

Настройки x264:
--preset veryslow --tune film --crf 16.5
--level 3 --vbv-bufsize 12500 --vbv-maxrate 12500 --qpfile "chapters.txt"
--colorprim smpte170m --transfer smpte170m --colormatrix smpte170m

Из логов:
Основной концерт:
x264 [info]: frame I:1006 Avg QP:14.31 size: 49583
x264 [info]: frame P:39213 Avg QP:18.04 size: 16261
x264 [info]: frame B:111070 Avg QP:22.51 size: 4508
x264 [info]: consecutive B-frames: 2.8% 4.8% 14.7% 36.7% 17.7% 18.7% 2.9% 1.2% 0.5%
x264 [info]: kb/s:1506.49

Бонус:
x264 [info]: frame I:447 Avg QP:13.99 size: 48649
x264 [info]: frame P:15923 Avg QP:17.73 size: 15884
x264 [info]: frame B:46808 Avg QP:22.37 size: 4044
x264 [info]: consecutive B-frames: 2.5% 4.3% 13.6% 36.6% 18.6% 18.1% 3.5% 1.1% 1.7%
x264 [info]: kb/s:1408.53

Звук - копия AC3 2.0 224 kbps.

MediaInfo:
General
Unique ID : 171571092310415468571665898054915983270 (0x811363F30939860599AF3D58037007A6)
Complete name : A Decade of Solas.mkv
Format : Matroska
Format version : Version 2
File size : 1.27 GiB
Duration : 1h 45mn
Overall bit rate : 1 732 Kbps
Encoded date : UTC 2013-02-12 19:43:54
Writing application : mkvmerge v6.0.0 ('Coming Up For Air') built on Jan 20 2013 09:52:00
Writing library : libebml v1.3.0 + libmatroska v1.4.0

Video
ID : 1
Format : AVC
Format/Info : Advanced Video Codec
Format profile : High@L3.0
Format settings, CABAC : Yes
Format settings, ReFrames : 9 frames
Codec ID : V_MPEG4/ISO/AVC
Duration : 1h 45mn
Bit rate : 1 474 Kbps
Width : 624 pixels
Height : 352 pixels
Display aspect ratio : 16:9
Frame rate mode : Constant
Frame rate : 23.976 fps
Color space : YUV
Chroma subsampling : 4:2:0
Bit depth : 8 bits
Scan type : Progressive
Bits/(Pixel*Frame) : 0.280
Stream size : 1.08 GiB (85%)
Writing library : x264 core 129 r2245 bc13772
Encoding settings : cabac=1 / ref=9 / deblock=1:-1:-1 / analyse=0x3:0x133 / me=umh / subme=10 / psy=1 / psy_rd=1.00:0.15 / mixed_ref=1 / me_range=24 / chroma_me=1 / trellis=2 / 8x8dct=1 / cqm=0 / deadzone=21,11 / fast_pskip=1 / chroma_qp_offset=-3 / threads=3 / lookahead_threads=1 / sliced_threads=0 / nr=0 / decimate=1 / interlaced=0 / bluray_compat=0 / constrained_intra=0 / bframes=8 / b_pyramid=2 / b_adapt=2 / b_bias=0 / direct=3 / weightb=1 / open_gop=0 / weightp=2 / keyint=240 / keyint_min=23 / scenecut=40 / intra_refresh=0 / rc_lookahead=60 / rc=crf / mbtree=1 / crf=16.5 / qcomp=0.60 / qpmin=0 / qpmax=69 / qpstep=4 / vbv_maxrate=12500 / vbv_bufsize=12500 / crf_max=0.0 / nal_hrd=none / ip_ratio=1.40 / aq=1:1.00
Language : English
Default : Yes
Forced : No
Color primaries : BT.601 NTSC
Transfer characteristics : BT.601
Matrix coefficients : BT.601

Audio
ID : 2
Format : AC-3
Format/Info : Audio Coding 3
Mode extension : CM (complete main)
Format settings, Endianness : Big
Codec ID : A_AC3
Duration : 1h 45mn
Bit rate mode : Constant
Bit rate : 224 Kbps
Channel(s) : 2 channels
Channel positions : Front: L R
Sampling rate : 48.0 KHz
Bit depth : 16 bits
Compression mode : Lossy
Stream size : 168 MiB (13%)
Title : AC3 2.0 224 kbps
Language : English
Default : Yes
Forced : No

Menu
00:00:00.000 : en:Intro
00:03:12.066 : en:Shola Na nGamhna/Wiggly Jigs
00:12:33.266 : en:Silver Dagger
00:19:48.099 : en:Timmy Clifford's
00:26:29.765 : en:Newry Highwayman
00:30:40.565 : en:Coconut Dog/Morning Dew
00:36:36.798 : en:Black Annis
00:43:48.964 : en:Who's In The What Now
00:49:19.264 : en:Wind That Shakes The Barley
00:53:05.564 : en:Le Poules Huppes (The Crested Hens)
01:00:30.564 : en:The Big Reels
01:07:05.197 : en:On A Sea Of Fleur De Lis
01:12:21.063 : en:Leslie's March
01:16:53.296 : en:Reasonland
01:21:48.396 : en:Pastures Of Plenty
01:29:26.596 : en:Bird In The Tree
01:41:03.329 : en:Nil Na La

General
Unique ID : 192290349387301893773250842247675476304 (0x90A9C63153B01720A707988A456F7950)
Complete name : Bonus tracks.mkv
Format : Matroska
Format version : Version 2
File size : 513 MiB
Duration : 43mn 55s
Overall bit rate : 1 634 Kbps
Encoded date : UTC 2013-02-11 09:39:31
Writing application : mkvmerge v6.0.0 ('Coming Up For Air') built on Jan 20 2013 09:52:00
Writing library : libebml v1.3.0 + libmatroska v1.4.0

Video
ID : 1
Format : AVC
Format/Info : Advanced Video Codec
Format profile : High@L3.0
Format settings, CABAC : Yes
Format settings, ReFrames : 9 frames
Codec ID : V_MPEG4/ISO/AVC
Duration : 43mn 55s
Bit rate : 1 378 Kbps
Width : 624 pixels
Height : 352 pixels
Display aspect ratio : 16:9
Frame rate mode : Constant
Frame rate : 23.976 fps
Color space : YUV
Chroma subsampling : 4:2:0
Bit depth : 8 bits
Scan type : Progressive
Bits/(Pixel*Frame) : 0.262
Stream size : 433 MiB (84%)
Writing library : x264 core 129 r2245 bc13772
Encoding settings : cabac=1 / ref=9 / deblock=1:-1:-1 / analyse=0x3:0x133 / me=umh / subme=10 / psy=1 / psy_rd=1.00:0.15 / mixed_ref=1 / me_range=24 / chroma_me=1 / trellis=2 / 8x8dct=1 / cqm=0 / deadzone=21,11 / fast_pskip=1 / chroma_qp_offset=-3 / threads=3 / lookahead_threads=1 / sliced_threads=0 / nr=0 / decimate=1 / interlaced=0 / bluray_compat=0 / constrained_intra=0 / bframes=8 / b_pyramid=2 / b_adapt=2 / b_bias=0 / direct=3 / weightb=1 / open_gop=0 / weightp=2 / keyint=240 / keyint_min=23 / scenecut=40 / intra_refresh=0 / rc_lookahead=60 / rc=crf / mbtree=1 / crf=16.5 / qcomp=0.60 / qpmin=0 / qpmax=69 / qpstep=4 / vbv_maxrate=12500 / vbv_bufsize=12500 / crf_max=0.0 / nal_hrd=none / ip_ratio=1.40 / aq=1:1.00
Language : English
Default : Yes
Forced : No
Color primaries : BT.601 NTSC
Transfer characteristics : BT.601
Matrix coefficients : BT.601

Audio
ID : 2
Format : AC-3
Format/Info : Audio Coding 3
Mode extension : CM (complete main)
Format settings, Endianness : Big
Codec ID : A_AC3
Duration : 43mn 55s
Bit rate mode : Constant
Bit rate : 224 Kbps
Channel(s) : 2 channels
Channel positions : Front: L R
Sampling rate : 48.0 KHz
Bit depth : 16 bits
Compression mode : Lossy
Stream size : 70.4 MiB (14%)
Title : AC3 2.0 224 kbps
Language : English
Default : Yes
Forced : No

Menu
00:00:00.000 : en:Rain and Snow
00:03:40.433 : en:Beaty Spot
00:10:19.033 : en:Unquiet Grave
00:15:10.299 : en:Lowground
00:19:16.532 : en:Gossip's
00:24:27.198 : en:Erin
00:30:18.764 : en:Darkness Darkness
00:35:17.164 : en:The Flowing Bowl
00:38:48.697 : en:Lament For Frankie


Трекер:  [ 20-Мар-2013 16:51 ]

  

Скачать .torrent

Размер .torrent файла 18 KB


Размер: 1.77 GB
Хэш (hash) релиза: 5ebccb0282c455d8925b8b83068766c7c5307e05

Еще никто не оставлял запись к записи скачать торрент Solas - Reunion, A Decade of Solas . Будь первым!

!Обратная связь