Скачать через торрент музыку VA - «Русская песня» бесплатно без регистрации torrent

Если у вас наблюдаются проблемы со скриншотами, переходом по ссылками, скачиванием торрентов - проблемы в блокировщике рекламы AdBlock. #хорошегоДня!


Статистика раздачи
Размер:  4.28 GB   |    Зарегистрирован:  4 года 8 месяцев   |    .torrent скачан:  37 раз   |   
Раздают:  1  
   
Загрузка...
 
Автор Сообщение

Galfimbul

avatar Galfimbul


«Русская песня» собирает друзей
Страна: СССР
Жанр: Pop, Folk
Продолжительность: 01:06:00 + 00:53:10
Год выпуска: 1991 г.
Автор сценария: С. Петров
Режиссер: С. Винников
Ведущая: С. Моргунова
Производство: Главная редакция музыкальных программ, 1990 г.
Описание: Праздничный концерт, посвященный 15-летию ансамбля «Русская песня» под управлением Надежды Бабкиной, с участием Валентин Толкуновой, Ларисы Долиной, Александра Малинина, Игоря Талькова, ансамбля «Ариэль», ансамбля классической музыки «Виола», бит-квартета "Секрет", группы "На-На", Государственного академического русского народного оркестра им. Н.П.Осипова под управлением Н. Калинина.
Запись трансляции из Государственного Центрального концертного зала «Россия».
Доп. информация: За помощь в оформлении релиза и треклист благодарим пользователя [url=http://http://рутраскер/forum/profile.php?mode=viewprofile&u=15379006]Фаннтомм[/url].
Качество: DVB-IPTV
Формат: MPEG-PS
Видео: MPEG-2, 720x576@768x576 (4/3), 25 fps, ~4844 Mbps (0.467 bit/pixel)
Аудио: MP2, 48.0 KHz, 2 ch, 192 Kbps, CBR
Оркестр Н.П.Осипова (дирижер Николай Калинин) - Богатырские ворота.
Фрагмент из спектакля "Когда песок взойдёт..." постановка Надежды Бабкиной.
Ансамбль "Русская песня" - Рождественская стихира.
Оркестр им. Н.П.Осипова - Вечерний звон.
Ансамбль солистов оркестра Н.П.Осипова, духовая группа "Камаринская".
Ансамбль "Русская песня" - Ой ты, дуброва..., Туман яром, И шли тучи, Месяц спрятался за рощу.
Валентина Толкунова - Печалей свет.
Ансамбль "Русская песня" - Старый клён, Девчата.
Ансамбль "Ариэль" - ...
Ансамбль "Русская песня" - Ох ты, Порушка-Параня... (в джазовой обработке).
Группа "На-На" и Ансамбль "Русская песня - Златые горы.
Ансамбль классической и современной музыки "Виола" (под упр. Алекандра Запольского) - Посвящение
Ансамбль "Русская песня" - Леди Мадонна
Лариса Долина - поппури на темы песен из репертуара "Beatles"
Трио "Секрет" - Пародийное поздравление
Ансамбль "Русская песня" - Пчёлочка златая..., Едут, поют удалые казаки..., Роспрягайте хлопцы коней...
Александр Малинин - Дай Бог… (молитва).
Надежда Бабкина - Белым-бело, Журавли.
Игорь Тальков - Бывший подъесаул.
Ансамбль "Русская песня" - Матушка Россия..., Дрогнул воздух... (Прощание славянки) с оркестром Минобороны.
General
Complete name : ...\«Русская песня» собирает друзей. Часть 1 (1991) [DVB-IPTV].mpg
Format : MPEG-PS
File size : 2.37 GiB
Duration : 1h 5mn
Overall bit rate mode : Variable
Overall bit rate : 5 139 Kbps
Writing library : (c) 1998-2012 Womble Multimedia, Inc. / MPEG Video Wizard DVD 5.0.1.100 (03/2011) / Sep 7 2012

Video
ID : 224 (0xE0)
Format : MPEG Video
Format version : Version 2
Format profile : Main@Main
Format settings, BVOP : Yes
Format settings, Matrix : Custom
Format settings, GOP : M=3, N=36
Duration : 1h 5mn
Bit rate mode : Variable
Bit rate : 4 844 Kbps
Maximum bit rate : 15.0 Mbps
Width : 720 pixels
Height : 576 pixels
Display aspect ratio : 4:3
Frame rate : 25.000 fps
Standard : PAL
Color space : YUV
Chroma subsampling : 4:2:0
Bit depth : 8 bits
Scan type : Interlaced
Scan order : Top Field First
Compression mode : Lossy
Bits/(Pixel*Frame) : 0.467
Stream size : 2.23 GiB (94%)
Writing library : (c) 1998-2012 Womble Multimedia, Inc. / MPEG Video Wizard DVD 5.0.1.100 (03/2011) / Sep 7 2012

Audio
ID : 192 (0xC0)
Format : MPEG Audio
Format version : Version 1
Format profile : Layer 2
Duration : 1h 5mn
Bit rate mode : Constant
Bit rate : 192 Kbps
Channel(s) : 2 channels
Sampling rate : 48.0 KHz
Compression mode : Lossy
Delay relative to video : -40ms
Stream size : 90.6 MiB (4%)
General
Complete name : ...\«Русская песня» собирает друзей. Часть 2 (1991) [DVB-IPTV].mpg
Format : MPEG-PS
File size : 1.91 GiB
Duration : 53mn 10s
Overall bit rate mode : Variable
Overall bit rate : 5 139 Kbps
Writing library : (c) 1998-2012 Womble Multimedia, Inc. / MPEG Video Wizard DVD 5.0.1.100 (03/2011) / Sep 7 2012

Video
ID : 224 (0xE0)
Format : MPEG Video
Format version : Version 2
Format profile : Main@Main
Format settings, BVOP : Yes
Format settings, Matrix : Custom
Format settings, GOP : M=2, N=36
Duration : 53mn 10s
Bit rate mode : Variable
Bit rate : 4 845 Kbps
Maximum bit rate : 15.0 Mbps
Width : 720 pixels
Height : 576 pixels
Display aspect ratio : 4:3
Frame rate : 25.000 fps
Standard : PAL
Color space : YUV
Chroma subsampling : 4:2:0
Bit depth : 8 bits
Scan type : Interlaced
Scan order : Top Field First
Compression mode : Lossy
Bits/(Pixel*Frame) : 0.467
Stream size : 1.80 GiB (94%)
Writing library : (c) 1998-2012 Womble Multimedia, Inc. / MPEG Video Wizard DVD 5.0.1.100 (03/2011) / Sep 7 2012

Audio
ID : 192 (0xC0)
Format : MPEG Audio
Format version : Version 1
Format profile : Layer 2
Duration : 53mn 10s
Bit rate mode : Constant
Bit rate : 192 Kbps
Channel(s) : 2 channels
Sampling rate : 48.0 KHz
Compression mode : Lossy
Delay relative to video : -40ms
Stream size : 73.0 MiB (4%)


Трекер:  [ 20-Мар-2013 16:51 ]

  

Скачать .torrent

Размер .torrent файла 11 KB


Размер: 4.28 GB
Хэш (hash) релиза: 91b58675567c30725a49a062627cd2bfea4eb69f

Торренты, похожие на VA - «Русская песня» скачать торрент

Форум Название Автор Размер S L Добавлен
Фольклор, Народная и Этническая музыка ·· VA - Русская песня собирает друзей (Праздник песни в Государственном Центральном концертном зале) [1991 г., Pop, Folk, DVB] Galfimbul 45425459284.23 GB 0 0 1359662880

23:08

31-Янв-13

Фольклор, Народная и Этническая музыка ·· VA - Русская песня собирает друзей (Праздник песни в Государственном Центральном концертном зале) [1991 г., Pop, Folk, SATRip] Galfimbul 13159747221.23 GB 0 0 1359662820

23:07

31-Янв-13

Rосk | Mеtаl | Аltеrnаtivе, Рunk, Indереndеnt (mр3) ·· (Rock, Pop Rock) VA - Русский Рок: Новые песни, Лучшие песни - 2016- 2017, MP3, 320 kbps Galfimbul 13460870331.25 GB 0 0 1502793507

13:38

15-Авг-17

Отечественная Поп-музыка (mp3) ·· (Pop) VA - Любимые песни русского радио - 2012, MP3, 320 kbps Galfimbul 196922154188 MB 0 0 1369644247

11:44

27-Май-13

Отечественная Поп-музыка (mp3) ·· (Pop) VA - Лучшие песни русского радио - 2009, MP3 (tracks), 128 kbps AqvaGen 670757870640 MB 0 0 1304014463

21:14

28-Апр-11

Отечественная Поп-музыка (mp3) ·· (POP)VA - Лучшие песни Русского Радио Зима 2008 - 2008, MP3, 128 kbps Galfimbul 682541348651 MB 0 0 1304014332

21:12

28-Апр-11

Отечественная Поп-музыка (mp3) ·· (Рop) VA - Лучшие песни Русского радио - 3 - 2008, MP3 (tracks), 128 kbps Galfimbul 700792687668 MB 0 0 1304014130

21:08

28-Апр-11

Фольклор, Народная и Этническая музыка ·· [RUS] (Цыгане,романсы,народная песня) VA - Звёзды русской эмиграции - Юл Бриннер,Алёша Димитриевич (Золотая коллекция 20 века) - 1999, FLAC (image+.cue), lossless _N_ 355771620339 MB 0 0 1331548920

13:42

12-Мар-12

Отечественная Поп-музыка (mp3) ·· (POP) VA - Песня года русский лето - 2009, MP3 (tracks), 256 kbps Galfimbul 718122341685 MB 0 0 1304014216

21:10

28-Апр-11

Еще никто не оставлял запись к записи скачать торрент VA - «Русская песня» . Будь первым!

!Обратная связь