Скачать через торрент музыку САДко - В программе "К нам приехал" бесплатно без регистрации torrent

Если у вас наблюдаются проблемы со скриншотами, переходом по ссылками, скачиванием торрентов - проблемы в блокировщике рекламы AdBlock. #хорошегоДня!


Статистика раздачи
Размер:  1.18 GB   |    Зарегистрирован:  4 года 8 месяцев   |    .torrent скачан:  43 раза   |   
Раздают:  1  
   
Загрузка...
 
Автор Сообщение

Galfimbul

avatar Galfimbul


группа "САДко"
В программе "К нам приехал" (8.11.2012 г.)

Страна: Россия
Жанр: Pop-Folk
Продолжительность: 00:59:56
Год выпуска: 2012 г.
Новый сезон популярной программы Первого российского круглосуточного телеканала
душевных песен "Ля-Минор".

Гость программы - группа "САДко". Эфир от 8 ноября 2012 г.

Треклист:
1. Вот кто-то с горочки спустился...
2. Я встретил розу
3. Отцовская любовь
4. Букет сирени
5. Мне не забыть
6. Вишня
7. Мокнут розы
8. Под окном черемуха



Источник: собственный рип
Качество: DVDRip
Контейнер: MOV
Видео кодек: MPEG4
Аудио кодек: AAC
Видео: 720x576 @ 4:3, 2 562 Kbps, 25.000 fps
Аудио: AAC, 2 ch, 48.0 KHz, 320 kbps
C:\Documents and Settings\2012-11-08 - САДко.mov
General
Complete name : C:\Documents and Settings\2012-11-08 - САДко.mov
Format : MPEG-4
Format profile : QuickTime
Codec ID : qt
File size : 1.18 GiB
Duration : 58mn 56s
Overall bit rate : 2 878 Kbps
Encoded date : UTC 2012-11-11 16:35:31
Tagged date : UTC 2012-11-11 17:01:29
Writing library : Apple QuickTime
com.apple.finalcutstudio.media.uuid : 38A5C36B-EA6D-4168-84D3-B71C4D85FC91
Video #1
ID : 1
Format : AVC
Format/Info : Advanced Video Codec
Format profile : Main@L3.0
Format settings, CABAC : No
Format settings, ReFrames : 2 frames
Codec ID : avc1
Codec ID/Info : Advanced Video Coding
Duration : 58mn 56s
Bit rate mode : Variable
Bit rate : 2 562 Kbps
Width : 720 pixels
Height : 576 pixels
Display aspect ratio : 4:3
Original display aspect ratio : 5:4
Frame rate mode : Constant
Frame rate : 25.000 fps
Standard : PAL
Resolution : 24 bits
Colorimetry : 4:2:0
Scan type : Progressive
Bits/(Pixel*Frame) : 0.247
Stream size : 1.05 GiB (89%)
Title : Ћбработчик видео Apple
Encoded date : UTC 2012-11-11 16:35:31
Tagged date : UTC 2012-11-11 17:01:29
colour_primaries : BT.601-6 525, BT.1358 525, BT.1700 NTSC, SMPTE 170M
transfer_characteristics : BT.709-5, BT.1361
matrix_coefficients : BT.601-6 525, BT.1358 525, BT.1700 NTSC, SMPTE 170M
Audio #2
ID : 2
Format : AAC
Format/Info : Advanced Audio Codec
Format version : Version 4
Format profile : LC
Format settings, SBR : No
Codec ID : 40
Duration : 58mn 56s
Bit rate mode : Constant
Bit rate : 311 Kbps
Nominal bit rate : 320 Kbps
Channel(s) : 2 channels
Channel positions : L R
Sampling rate : 48.0 KHz
Resolution : 16 bits
Stream size : 131 MiB (11%)
Title : Ћбработчик звука Apple
Encoded date : UTC 2012-11-11 16:35:32
Tagged date : UTC 2012-11-11 17:01:29

рип сделан с исходной съемки, не с ТВ. Будут вопросы - пишите в ЛС



Трекер:  [ 20-Мар-2013 16:51 ]

  

Скачать .torrent

Размер .torrent файла 12 KB


Размер: 1.18 GB
Хэш (hash) релиза: 3fe5358b7774ede032e3faa6ac866045fe48067c

Еще никто не оставлял запись к записи скачать торрент САДко - В программе "К нам приехал" . Будь первым!

!Обратная связь