Скачать через торрент музыку Нокаут Haywire бесплатно без регистрации torrent

Если у вас наблюдаются проблемы со скриншотами, переходом по ссылками, скачиванием торрентов - проблемы в блокировщике рекламы AdBlock. #хорошегоДня!


Статистика раздачи
Размер:  180 MB   |    Зарегистрирован:  4 года 6 месяцев   |    .torrent скачан:  26 раз   |   
Раздают:  1  
   
Загрузка...
 
Автор Сообщение

Galfimbul

avatar Galfimbul


Нокаут / Haywire

Жанр: Score
Композитор: David Holmes

Год выпуска диска: 2012
Год выпуска фильма: 2011

Страна-производитель диска: US
Издатель (лейбл): Relativity Music Group

Аудиокодек: FLAC (*.flac)
Тип рипа: tracks+.cue
Битрейт аудио: lossless

Продолжительность: 35:30

Источник (релизер): What.cd (by jefe)
Наличие сканов в содержимом раздачи: нет

Треклист:
01. Haywire (1:50)
02. Upstate NYC (2:05)
03. Barcelona (1:26)
04. Stakeout (1:34)
05. Let's Get Jiang (4:13)
06. Delivering Jiang (1:55)
07. Dublin (1:30)
08. Sniffing Around (0:53)
09. The Drive Rossbourgh (0:57)
10. Looking For Clues (1:37)
11. Jiang's Dead (1:27)
12. Shot In The Face (1:58)
13. Dublin Chase (1:52)
14. Against All Odds (2:26)
15. Against All Odds Pt. 2 (1:27)
16. The Ship Comes In (2:23)
17. No Eye Dear (1:54)
18. Where's Kenneth (3:53)
Exact Audio Copy V1.0 beta 3 from 29. August 2011

EAC extraction logfile from 17. December 2012, 20:57

David Holmes / Haywire

Used drive : Optiarc DVD RW AD-7583S Adapter: 3 ID: 0

Read mode : SecureUtilize accurate stream : YesDefeat audio cache : YesMake use of C2 pointers : No

Read offset correction : 6Overread into Lead-In and Lead-Out : NoFill up missing offset samples with silence : YesDelete leading and trailing silent blocks : NoNull samples used in CRC calculations : YesUsed interface : Native Win32 interface for Win NT & 2000Gap handling : Appended to previous track

Used output format : User Defined EncoderSelected bitrate : 1024 kBit/sQuality : HighAdd ID3 tag : NoCommand line compressor : C:\Program Files (x86)\Exact Audio Copy\Flac\flac.exeAdditional command line options : -8 -V -T "ARTIST=%artist%" -T "TITLE=%title%" -T "ALBUM=%albumtitle%" -T "DATE=%year%" -T "TRACKNUMBER=%tracknr%" -T "GENRE=%genre%" -T "PERFORMER=%albuminterpret%" -T "COMPOSER=%composer%" %haslyrics%--tag-from-file=LYRICS="%lyricsfile%"%haslyrics% -T "ALBUMARTIST=%albumartist%" -T "DISCNUMBER=%cdnumber%" -T "TOTALDISCS=%totalcds%" -T "TOTALTRACKS=%numtracks%" -T "COMMENT=EAC V1.0 beta 3, Secure Mode, Test & Copy, AccurateRip, FLAC -8" %source% -o %dest%

TOC of the extracted CD

Track | Start | Length | Start sector | End sector --------------------------------------------------------- 1 | 0:00.00 | 1:50.55 | 0 | 8304 2 | 1:50.55 | 2:05.12 | 8305 | 17691 3 | 3:55.67 | 1:26.67 | 17692 | 24208 4 | 5:22.59 | 1:34.11 | 24209 | 31269 5 | 6:56.70 | 4:13.33 | 31270 | 50277 6 | 11:10.28 | 1:55.39 | 50278 | 58941 7 | 13:05.67 | 1:30.33 | 58942 | 65724 8 | 14:36.25 | 0:53.17 | 65725 | 69716 9 | 15:29.42 | 0:57.65 | 69717 | 74056 10 | 16:27.32 | 1:37.23 | 74057 | 81354 11 | 18:04.55 | 1:27.65 | 81355 | 87944 12 | 19:32.45 | 1:58.19 | 87945 | 96813 13 | 21:30.64 | 1:52.19 | 96814 | 105232 14 | 23:23.08 | 2:26.26 | 105233 | 116208 15 | 25:49.34 | 1:27.67 | 116209 | 122800 16 | 27:17.26 | 2:33.26 | 122801 | 134301 17 | 29:50.52 | 1:54.06 | 134302 | 142857 18 | 31:44.58 | 3:53.27 | 142858 | 160359

Track 1

Filename C:\EAC\David Holmes - Haywire (2011) (FLAC)\01 - Haywire.wav

Pre-gap length 0:00:02.00

Peak level 96.8 % Extraction speed 2.1 X Track quality 100.0 % Test CRC 20014FB4 Copy CRC 20014FB4 Cannot be verified as accurate (confidence 1) [CFB42A31], AccurateRip returned [69A35A02] (AR v2) Copy OK

Track 2

Filename C:\EAC\David Holmes - Haywire (2011) (FLAC)\02 - Upstate Nyc.wav

Peak level 93.3 % Extraction speed 2.0 X Track quality 99.9 % Test CRC AE451DF2 Copy CRC AE451DF2 Cannot be verified as accurate (confidence 1) [8FB2F85F], AccurateRip returned [2C7AE140] (AR v2) Copy OK

Track 3

Filename C:\EAC\David Holmes - Haywire (2011) (FLAC)\03 - Barcelona.wav

Peak level 96.6 % Extraction speed 2.3 X Track quality 100.0 % Test CRC DE982FA7 Copy CRC DE982FA7 Cannot be verified as accurate (confidence 1) [0B7D3F89], AccurateRip returned [BA3D6511] (AR v2) Copy OK

Track 4

Filename C:\EAC\David Holmes - Haywire (2011) (FLAC)\04 - Stakeout.wav

Peak level 96.7 % Extraction speed 2.5 X Track quality 100.0 % Test CRC B0738530 Copy CRC B0738530 Cannot be verified as accurate (confidence 1) [89646E4E], AccurateRip returned [663744B1] (AR v2) Copy OK

Track 5

Filename C:\EAC\David Holmes - Haywire (2011) (FLAC)\05 - Let's Get Jiang.wav

Peak level 97.4 % Extraction speed 3.2 X Track quality 100.0 % Test CRC AF7940D3 Copy CRC AF7940D3 Cannot be verified as accurate (confidence 1) [B9B17ECD], AccurateRip returned [E0B8B954] (AR v2) Copy OK

Track 6

Filename C:\EAC\David Holmes - Haywire (2011) (FLAC)\06 - Delivering Jiang.wav

Peak level 96.6 % Extraction speed 2.4 X Track quality 99.9 % Test CRC 57456D1F Copy CRC 57456D1F Cannot be verified as accurate (confidence 1) [493D492A], AccurateRip returned [95382F9C] (AR v2) Copy OK

Track 7

Filename C:\EAC\David Holmes - Haywire (2011) (FLAC)\07 - Dublin.wav

Peak level 96.9 % Extraction speed 2.9 X Track quality 100.0 % Test CRC D7F77DC0 Copy CRC D7F77DC0 Cannot be verified as accurate (confidence 1) [628968F8], AccurateRip returned [53C61DD2] (AR v2) Copy OK

Track 8

Filename C:\EAC\David Holmes - Haywire (2011) (FLAC)\08 - Sniffing Around.wav

Peak level 93.3 % Extraction speed 2.4 X Track quality 100.0 % Test CRC EE691B52 Copy CRC EE691B52 Cannot be verified as accurate (confidence 1) [C38F1EF1], AccurateRip returned [1A0B0ED0] (AR v2) Copy OK

Track 9

Filename C:\EAC\David Holmes - Haywire (2011) (FLAC)\09 - The Drive Rossbourgh.wav

Peak level 92.5 % Extraction speed 2.5 X Track quality 100.0 % Test CRC 70A2D21E Copy CRC 70A2D21E Cannot be verified as accurate (confidence 1) [6EAA3AAE], AccurateRip returned [02D46357] (AR v2) Copy OK

Track 10

Filename C:\EAC\David Holmes - Haywire (2011) (FLAC)\10 - Looking For Clues.wav

Peak level 96.8 % Extraction speed 3.0 X Track quality 100.0 % Test CRC B66D35BF Copy CRC B66D35BF Cannot be verified as accurate (confidence 1) [91F9CF70], AccurateRip returned [7BBAA6BD] (AR v2) Copy OK

Track 11

Filename C:\EAC\David Holmes - Haywire (2011) (FLAC)\11 - Jiang's Dead.wav

Peak level 96.7 % Extraction speed 3.0 X Track quality 100.0 % Test CRC CCBD8A5C Copy CRC CCBD8A5C Cannot be verified as accurate (confidence 1) [8F39585C], AccurateRip returned [17C16489] (AR v2) Copy OK

Track 12

Filename C:\EAC\David Holmes - Haywire (2011) (FLAC)\12 - Shot In The Face.wav

Peak level 96.6 % Extraction speed 3.4 X Track quality 100.0 % Test CRC 22F80424 Copy CRC 22F80424 Cannot be verified as accurate (confidence 1) [D11555BD], AccurateRip returned [24896A5F] (AR v2) Copy OK

Track 13

Filename C:\EAC\David Holmes - Haywire (2011) (FLAC)\13 - Dublin Chase.wav

Peak level 96.7 % Extraction speed 3.3 X Track quality 100.0 % Test CRC A60C5991 Copy CRC A60C5991 Cannot be verified as accurate (confidence 1) [B812BACF], AccurateRip returned [25670D0F] (AR v2) Copy OK

Track 14

Filename C:\EAC\David Holmes - Haywire (2011) (FLAC)\14 - Against All Odds.wav

Peak level 97.2 % Extraction speed 3.7 X Track quality 100.0 % Test CRC 2D942594 Copy CRC 2D942594 Cannot be verified as accurate (confidence 1) [8CEF03CD], AccurateRip returned [1A3FEB06] (AR v2) Copy OK

Track 15

Filename C:\EAC\David Holmes - Haywire (2011) (FLAC)\15 - Against All Odds Pt. 2.wav

Peak level 91.7 % Extraction speed 3.3 X Track quality 100.0 % Test CRC 31353CA2 Copy CRC 31353CA2 Cannot be verified as accurate (confidence 1) [3E40CD03], AccurateRip returned [24749418] (AR v2) Copy OK

Track 16

Filename C:\EAC\David Holmes - Haywire (2011) (FLAC)\16 - The Ship Comes In.wav

Peak level 96.6 % Extraction speed 3.2 X Track quality 99.9 % Test CRC FA197FD1 Copy CRC FA197FD1 Cannot be verified as accurate (confidence 1) [1AA958FD], AccurateRip returned [285AD1D5] (AR v2) Copy OK

Track 17

Filename C:\EAC\David Holmes - Haywire (2011) (FLAC)\17 - No Eye Dear.wav

Peak level 96.6 % Extraction speed 3.7 X Track quality 100.0 % Test CRC A9DDC6A8 Copy CRC A9DDC6A8 Cannot be verified as accurate (confidence 1) [7C379D3E], AccurateRip returned [24658089] (AR v2) Copy OK

Track 18

Filename C:\EAC\David Holmes - Haywire (2011) (FLAC)\18 - Where's Kenneth.wav

Peak level 96.8 % Extraction speed 3.9 X Track quality 99.9 % Test CRC 6249D040 Copy CRC 6249D040 Cannot be verified as accurate (confidence 1) [D7C02233], AccurateRip returned [4C561D56] (AR v2) Copy OK

No tracks could be verified as accurateYou may have a different pressing from the one(s) in the database

No errors occurred

End of status report

---- CUETools DB Plugin V2.1.3

[CTDB TOCID: VNKzy5ohXAkBg3eUUYC3Lv5P_fs-] disk not present in database, Submit result: VNKzy5ohXAkBg3eUUYC3Lv5P_fs- has been uploaded

==== Log checksum C26D8169CB6DE489AE3B106F10054043D40F3B26910983BE08DE73870F365A18 ====
REM GENRE SoundtrackREM DATE 2012REM DISCID 02085A12REM COMMENT "ExactAudioCopy v1.0b3"PERFORMER "David Holmes"TITLE "Haywire"FILE "01 - Haywire.wav" WAVE TRACK 01 AUDIO TITLE "Haywire" PERFORMER "David Holmes" ISRC H1nLE0900411 FLAGS DCP INDEX 01 00:00:00FILE "02 - Upstate Nyc.wav" WAVE TRACK 02 AUDIO TITLE "Upstate Nyc" PERFORMER "David Holmes" ISRC H1nLE0900412 FLAGS DCP INDEX 01 00:00:00FILE "03 - Barcelona.wav" WAVE TRACK 03 AUDIO TITLE "Barcelona" PERFORMER "David Holmes" ISRC H1nLE0900413 FLAGS DCP INDEX 01 00:00:00FILE "04 - Stakeout.wav" WAVE TRACK 04 AUDIO TITLE "Stakeout" PERFORMER "David Holmes" ISRC H1nLE0900414 FLAGS DCP INDEX 01 00:00:00FILE "05 - Let's Get Jiang.wav" WAVE TRACK 05 AUDIO TITLE "Let's Get Jiang" PERFORMER "David Holmes" ISRC H1nLE0900414 FLAGS DCP INDEX 01 00:00:00FILE "06 - Delivering Jiang.wav" WAVE TRACK 06 AUDIO TITLE "Delivering Jiang" PERFORMER "David Holmes" ISRC H1nLE0900416 FLAGS DCP INDEX 01 00:00:00FILE "07 - Dublin.wav" WAVE TRACK 07 AUDIO TITLE "Dublin" PERFORMER "David Holmes" ISRC H1nLE0900417 FLAGS DCP INDEX 01 00:00:00FILE "08 - Sniffing Around.wav" WAVE TRACK 08 AUDIO TITLE "Sniffing Around" PERFORMER "David Holmes" ISRC H1nLE0900418 FLAGS DCP INDEX 01 00:00:00FILE "09 - The Drive Rossbourgh.wav" WAVE TRACK 09 AUDIO TITLE "The Drive Rossbourgh" PERFORMER "David Holmes" ISRC H1nLE0900419 FLAGS DCP INDEX 01 00:00:00FILE "10 - Looking For Clues.wav" WAVE TRACK 10 AUDIO TITLE "Looking For Clues" PERFORMER "David Holmes" ISRC H1nLE0900420 FLAGS DCP INDEX 01 00:00:00FILE "11 - Jiang's Dead.wav" WAVE TRACK 11 AUDIO TITLE "Jiang's Dead" PERFORMER "David Holmes" ISRC H1nLE0900421 FLAGS DCP INDEX 01 00:00:00FILE "12 - Shot In The Face.wav" WAVE TRACK 12 AUDIO TITLE "Shot In The Face" PERFORMER "David Holmes" ISRC H1nLE0900422 FLAGS DCP INDEX 01 00:00:00FILE "13 - Dublin Chase.wav" WAVE TRACK 13 AUDIO TITLE "Dublin Chase" PERFORMER "David Holmes" ISRC H1nLE0900423 FLAGS DCP INDEX 01 00:00:00FILE "14 - Against All Odds.wav" WAVE TRACK 14 AUDIO TITLE "Against All Odds" PERFORMER "David Holmes" ISRC H1nLE0900424 FLAGS DCP INDEX 01 00:00:00FILE "15 - Against All Odds Pt. 2.wav" WAVE TRACK 15 AUDIO TITLE "Against All Odds Pt. 2" PERFORMER "David Holmes" ISRC H1nLE0900425 FLAGS DCP INDEX 01 00:00:00FILE "16 - The Ship Comes In.wav" WAVE TRACK 16 AUDIO TITLE "The Ship Comes In" PERFORMER "David Holmes" ISRC H1nLE0900426 FLAGS DCP INDEX 01 00:00:00FILE "17 - No Eye Dear.wav" WAVE TRACK 17 AUDIO TITLE "No Eye Dear" PERFORMER "David Holmes" ISRC H1nLE0900427 FLAGS DCP INDEX 01 00:00:00FILE "18 - Where's Kenneth.wav" WAVE TRACK 18 AUDIO TITLE "Where's Kenneth" PERFORMER "David Holmes" ISRC H1nLE0900428 FLAGS DCP INDEX 01 00:00:00
-----------------------

DON'T MODIFY THIS FILE

-----------------------

PERFORMER: auCDtect Task Manager, ver. 1.5.1RC6 build 1.5.1.7Copyright (c) 2008-2010 y-soft. All rights reservedhttp://y-soft.org

ANALYZER: auCDtect: CD records authenticity detector, version 0.8.2Copyright (c) 2004 Oleg Berngardt. All rights reserved.Copyright (c) 2004 Alexander Djourik. All rights reserved.

FILE: 18 - Where's Kenneth.flac Size: 20320802 Hash: 26FC019B22C70A24C7A29A8F726C420C Accuracy: -m0 Conclusion: CDDA 100% Signature: ABA345C22184A7953E08394DD356E75DAC77F8EAFILE: 17 - No Eye Dear.flac Size: 10463163 Hash: 531C193FA5A26E2053A966F785BBDD18 Accuracy: -m0 Conclusion: CDDA 100% Signature: 7EBB5DA36575B36D9479A44B7B92E4E0C2E728DCFILE: 16 - The Ship Comes In.flac Size: 11942254 Hash: E297FD44D3EF7C18F56879CF9417DEDF Accuracy: -m0 Conclusion: CDDA 100% Signature: 3D93BEF29532A49F5DC3671FA3785A517E125016FILE: 15 - Against All Odds Pt. 2.flac Size: 8374327 Hash: 4CBC3BBC4A4A5C4C4C7A1128D2D69136 Accuracy: -m0 Conclusion: CDDA 100% Signature: 546EF23639C726DE76BC5A0E9AEC499402A8F580FILE: 14 - Against All Odds.flac Size: 14599389 Hash: FBE6D2A8D2941A316B5E1E4E59C61582 Accuracy: -m0 Conclusion: CDDA 100% Signature: AD42BE94BD4B78FDE0383A7FE9D2550B32233FFEFILE: 13 - Dublin Chase.flac Size: 10119796 Hash: CD8C7FA7AA8F3BDE226766667AB967AF Accuracy: -m0 Conclusion: CDDA 99% Signature: 4C64BC0D98CB508E1669E84CA644B6C24B4768D9FILE: 12 - Shot In The Face.flac Size: 9635460 Hash: 796446FE6B5E3CB4CF856A57051F9D04 Accuracy: -m0 Conclusion: CDDA 100% Signature: 0E2047DC855406E816140EC465196A6C5B6387A3FILE: 11 - Jiang's Dead.flac Size: 6954701 Hash: D9349DBC46A3A78A2F7991A349E334FB Accuracy: -m0 Conclusion: CDDA 100% Signature: F510AA38B6277BAFF26D6121A68171BB26D49E45FILE: 10 - Looking For Clues.flac Size: 7751008 Hash: 5D2C62D55A983F1957A8986FA290B6CF Accuracy: -m0 Conclusion: CDDA 100% Signature: 41AFF7DC7EE231A6DED563C7EC5E34D887F77C13FILE: 09 - The Drive Rossbourgh.flac Size: 5855029 Hash: 9D6244B682E166AAB8C72C3C7DD14B0D Accuracy: -m0 Conclusion: CDDA 100% Signature: A335D623DD3BD2E37F5F0C20C8CF7569DED19F71FILE: 08 - Sniffing Around.flac Size: 3550003 Hash: 1921A136FF16834782BBBF6D0115E86F Accuracy: -m0 Conclusion: CDDA 100% Signature: B3FA1827CFB4A5B9D872A444B9C16B8B96FBB989FILE: 07 - Dublin.flac Size: 8173082 Hash: 69F45DC593686984E412D5CC6318277D Accuracy: -m0 Conclusion: CDDA 100% Signature: F06B22F020D513C212975AA434C3226F28A9FECBFILE: 06 - Delivering Jiang.flac Size: 9480593 Hash: 0E0ABAB74CC41D4843A5DE077778BE69 Accuracy: -m0 Conclusion: CDDA 100% Signature: BB984FCA4491E51302234E7E26B7ECDC49935051FILE: 05 - Let's Get Jiang.flac Size: 24798052 Hash: 5CABBF56CD8204DBF4332258CD1AABD2 Accuracy: -m0 Conclusion: CDDA 100% Signature: 30E35810A92E7943E08FA5FD6ED3FB7AD059DACBFILE: 04 - Stakeout.flac Size: 7028954 Hash: AD73CD98523B5CBB611DD659C6661F8A Accuracy: -m0 Conclusion: CDDA 100% Signature: 2D6D2E3DCDC6E0B4875311466AEE1BEA055224A3FILE: 03 - Barcelona.flac Size: 8342503 Hash: DCF48DB243717BB772B849DA46027E1A Accuracy: -m0 Conclusion: CDDA 100% Signature: BED88EC1F6C42394CC7CD678C64EAB9D2A471D0DFILE: 02 - Upstate Nyc.flac Size: 9405424 Hash: 837BA3D87CE562D962AC25FA7B866F90 Accuracy: -m0 Conclusion: CDDA 100% Signature: 80C13EF73488D4BA4D85CD190402B2E2CB23431CFILE: 01 - Haywire.flac Size: 11520308 Hash: 8AAD057A90A30CA39B89C853B263DEA1 Accuracy: -m0 Conclusion: CDDA 100% Signature: 8245B08520892657A3619734808F90E80F6B8914


Трекер:  [ 12-Июн-2013 16:40 ]

  

Скачать .torrent

Размер .torrent файла 15 KB


Размер: 180 MB
Хэш (hash) релиза: 95080c800f2e96c72ce28d13399bca1d6f829c4a

Торренты, похожие на Нокаут Haywire скачать торрент

Форум Название Автор Размер S L Добавлен
Саундтреки к фильмам и мультфильмам (mp3) ·· (Score) Нокаут / Haywire (by David Holmes) - 2012, MP3, 320 kbps Galfimbul 8563651282 MB 0 0 1327082532

21:02

20-Янв-12

bot

Топик был перенесен в форум Саундтреки к фильмам и мультфильмам (lossless)

Перенес Galfimbul

Хотите добавить комментарий к записи скачать торрент Нокаут Haywire

!Обратная связь