Скачать через торрент музыку Ирис в крови Дело об окровавленном ирисе бесплатно без регистрации torrent

Если у вас наблюдаются проблемы со скриншотами, переходом по ссылками, скачиванием торрентов - проблемы в блокировщике рекламы AdBlock. #хорошегоДня!


Статистика раздачи
Размер:  301 MB   |    Зарегистрирован:  4 года 6 месяцев   |    .torrent скачан:  24 раза   |   
Раздают:  1  
   
Загрузка...
 
Автор Сообщение

Galfimbul

avatar Galfimbul


Ирис в крови / Дело об окровавленном ирисе
/ Что эти странные капельки крови делают на теле Дженнифер?
// Perche' Quelle Strane Gocce Di Sangue Sul Corpo Di Jennifer?

Жанр: Score
Композитор: Bruno Nicolai
Год выпуска диска: 2004
Год выпуска фильма: 1972
Страна-производитель диска: Италия
Издатель (лейбл): Digitmovies
Номер по каталогу: CDDM013

Аудиокодек: FLAC (*.flac)
Тип рипа: tracks+.cue
Битрейт аудио: lossless
Продолжительность: 01:02:45

Источник: what.cd
Наличие сканов в содержимом раздачи: да

Треклист:
01 Perche' Quelle Strane Gocce Di Sangue Sul Corpo Di Jennifer? - Seq. 1 - Main Titles (2:13)
02 Perche' Quelle Strane Gocce Di Sangue Sul Corpo Di Jennifer? - Seq. 2 - Murder In The Elevator (4:55)
03 Perche' Quelle Strane Gocce Di Sangue Sul Corpo Di Jennifer? - Seq. 3 - Fashion Photographer - Night Club Show (6:13)
04 Perche' Quelle Strane Gocce Di Sangue Sul Corpo Di Jennifer? - Seq. 4 - Jennifer's Vision (0:40)
05 Perche' Quelle Strane Gocce Di Sangue Sul Corpo Di Jennifer? - Seq. 5 - Pursuited - Jennifer's Recall (3:49)
06 Perche' Quelle Strane Gocce Di Sangue Sul Corpo Di Jennifer? - Seq. 6 - Murder Flashback (0:56)
07 Perche' Quelle Strane Gocce Di Sangue Sul Corpo Di Jennifer? - Seq. 7 - Coffee Time (2:47)
08 Perche' Quelle Strane Gocce Di Sangue Sul Corpo Di Jennifer? - Seq. 8 - Fear Of Blood (0:50)
09 Perche' Quelle Strane Gocce Di Sangue Sul Corpo Di Jennifer? - Seq. 9 - Killer Violin (1:52)
10 Perche' Quelle Strane Gocce Di Sangue Sul Corpo Di Jennifer? - Seq. 10 - Ambush (0:39)
11 Perche' Quelle Strane Gocce Di Sangue Sul Corpo Di Jennifer? - Seq. 11 - Night Visitor (2:27)
12 Perche' Quelle Strane Gocce Di Sangue Sul Corpo Di Jennifer? - Seq. 12 - Jennifer's Walk (0:44)
13 Perche' Quelle Strane Gocce Di Sangue Sul Corpo Di Jennifer? - Seq. 13 - A Living Nightmare (1:10)
14 Perche' Quelle Strane Gocce Di Sangue Sul Corpo Di Jennifer? - Seq. 14 - Rendez-Vous With Jennifer (1:26)
15 Perche' Quelle Strane Gocce Di Sangue Sul Corpo Di Jennifer? - Seq. 15 - A Deadly Visit (2:24)
16 Perche' Quelle Strane Gocce Di Sangue Sul Corpo Di Jennifer? - Seq. 16 - The Bloody Iris (0:31)
17 Perche' Quelle Strane Gocce Di Sangue Sul Corpo Di Jennifer? - Seq. 17 - Love Scene (3:50)
18 Perche' Quelle Strane Gocce Di Sangue Sul Corpo Di Jennifer? - Seq. 18 - Pursuit (2:51)
19 Perche' Quelle Strane Gocce Di Sangue Sul Corpo Di Jennifer? - Seq. 19 - Strange Neighbours (3:53)
20 Perche' Quelle Strane Gocce Di Sangue Sul Corpo Di Jennifer? - Seq. 20 - Jennifer Escapes (1:06)
21 Perche' Quelle Strane Gocce Di Sangue Sul Corpo Di Jennifer? - Seq. 21 - Panic In The Elevator - Terror In The Cellar (4:59)
22 Perche' Quelle Strane Gocce Di Sangue Sul Corpo Di Jennifer? - Seq. 22 - Fear Of Blood Flashback - The Nightmare Is Over (1:25)
23 Perche' Quelle Strane Gocce Di Sangue Sul Corpo Di Jennifer? - Seq. 23 - End Titles (1:08)
24 Perche' Quelle Strane Gocce Di Sangue Sul Corpo Di Jennifer? - Seq. 24 - Pursuit (Alternate Version) (2:42)
25 Perche' Quelle Strane Gocce Di Sangue Sul Corpo Di Jennifer? - Seq. 25 - Pursuit (Alternate Version 2) (4:33)
26 Perche' Quelle Strane Gocce Di Sangue Sul Corpo Di Jennifer? - Seq. 26 - Main Titles (Alternate Long Version) (2:43)

Доп. информация: Отличная музыка Бруно Николаи к знаменитому джиалло Джулиано Карнимео.
Exact Audio Copy V1.0 beta 3 from 29. August 2011

EAC extraction logfile from 7. August 2012, 22:34

Bruno Nicolai / Perché Quelle Strane Gocce Di Sangue Sul Corpo Di Jennifer?

Used drive : PIONEER DVD-RW DVR-219RS Adapter: 0 ID: 1

Read mode : SecureUtilize accurate stream : YesDefeat audio cache : YesMake use of C2 pointers : No

Read offset correction : 6Overread into Lead-In and Lead-Out : NoFill up missing offset samples with silence : YesDelete leading and trailing silent blocks : NoNull samples used in CRC calculations : YesUsed interface : Native Win32 interface for Win NT & 2000Gap handling : Appended to previous track

Used output format : User Defined EncoderSelected bitrate : 1024 kBit/sQuality : HighAdd ID3 tag : NoCommand line compressor : C:\Program Files (x86)\Exact Audio Copy\Flac\flac.exeAdditional command line options : -8 -V -T "ARTIST=%artist%" -T "TITLE=%title%" -T "ALBUM=%albumtitle%" -T "DATE=%year%" -T "TRACKNUMBER=%tracknr%" -T "GENRE=%genre%" -T "PERFORMER=%albuminterpret%" -T "COMPOSER=%composer%" %haslyrics%--tag-from-file=LYRICS="%lyricsfile%"%haslyrics% -T "ALBUMARTIST=%albumartist%" -T "DISCNUMBER=%cdnumber%" -T "TOTALDISCS=%totalcds%" -T "TOTALTRACKS=%numtracks%" -T "COMMENT=%comment%" %source% -o %dest%

TOC of the extracted CD

Track | Start | Length | Start sector | End sector --------------------------------------------------------- 1 | 0:00.00 | 2:12.74 | 0 | 9973 2 | 2:12.74 | 4:55.17 | 9974 | 32115 3 | 7:08.16 | 6:13.10 | 32116 | 60100 4 | 13:21.26 | 0:39.44 | 60101 | 63069 5 | 14:00.70 | 3:49.20 | 63070 | 80264 6 | 17:50.15 | 0:56.24 | 80265 | 84488 7 | 18:46.39 | 2:46.71 | 84489 | 97009 8 | 21:33.35 | 0:49.74 | 97010 | 100758 9 | 22:23.34 | 1:51.72 | 100759 | 109155 10 | 24:15.31 | 0:38.52 | 109156 | 112057 11 | 24:54.08 | 2:27.37 | 112058 | 123119 12 | 27:21.45 | 0:43.43 | 123120 | 126387 13 | 28:05.13 | 1:10.04 | 126388 | 131641 14 | 29:15.17 | 1:25.67 | 131642 | 138083 15 | 30:41.09 | 2:23.49 | 138084 | 148857 16 | 33:04.58 | 0:30.56 | 148858 | 151163 17 | 33:35.39 | 3:50.13 | 151164 | 168426 18 | 37:25.52 | 2:50.57 | 168427 | 181233 19 | 40:16.34 | 3:52.47 | 181234 | 198680 20 | 44:09.06 | 1:06.17 | 198681 | 203647 21 | 45:15.23 | 4:58.51 | 203648 | 226048 22 | 50:13.74 | 1:25.15 | 226049 | 232438 23 | 51:39.14 | 1:08.10 | 232439 | 237548 24 | 52:47.24 | 2:41.43 | 237549 | 249666 25 | 55:28.67 | 4:33.23 | 249667 | 270164 26 | 60:02.15 | 2:43.05 | 270165 | 282394

Track 1

Filename D:\CUE FILE\Perche Quelle Strane Gocce Di Sangue Sul Corpo Di Jennifer\01 - Perché Quelle Strane Gocce...Sequence 01 - Main Titles.wav

Pre-gap length 0:00:02.00

Peak level 34.4 % Extraction speed 1.5 X Track quality 100.0 % Test CRC 5EA1CF36 Copy CRC 5EA1CF36 Track not present in AccurateRip database Copy OK

Track 2

Filename D:\CUE FILE\Perche Quelle Strane Gocce Di Sangue Sul Corpo Di Jennifer\02 - Perché Quelle Strane Gocce...Sequence 02 - Murder In The Elevator.wav

Pre-gap length 0:00:03.00

Peak level 33.3 % Extraction speed 1.9 X Track quality 100.0 % Test CRC BE76502F Copy CRC BE76502F Track not present in AccurateRip database Copy OK

Track 3

Filename D:\CUE FILE\Perche Quelle Strane Gocce Di Sangue Sul Corpo Di Jennifer\03 - Perché Quelle Strane Gocce...Sequence 03 - Fashion Photographer - Night Club Show.wav

Pre-gap length 0:00:03.00

Peak level 38.4 % Extraction speed 2.0 X Track quality 99.9 % Test CRC B08977EC Copy CRC B08977EC Track not present in AccurateRip database Copy OK

Track 4

Filename D:\CUE FILE\Perche Quelle Strane Gocce Di Sangue Sul Corpo Di Jennifer\04 - Perché Quelle Strane Gocce...Sequence 04 - Jennifer's Vision.wav

Pre-gap length 0:00:03.00

Peak level 29.1 % Extraction speed 1.3 X Track quality 100.0 % Test CRC 5193E688 Copy CRC 5193E688 Track not present in AccurateRip database Copy OK

Track 5

Filename D:\CUE FILE\Perche Quelle Strane Gocce Di Sangue Sul Corpo Di Jennifer\05 - Perché Quelle Strane Gocce...Sequence 05 - Pursuited - Jennifer's Recall.wav

Pre-gap length 0:00:03.00

Peak level 38.1 % Extraction speed 2.2 X Track quality 100.0 % Test CRC 8DEC7C84 Copy CRC 8DEC7C84 Track not present in AccurateRip database Copy OK

Track 6

Filename D:\CUE FILE\Perche Quelle Strane Gocce Di Sangue Sul Corpo Di Jennifer\06 - Perché Quelle Strane Gocce...Sequence 06 - Murder Flashback.wav

Pre-gap length 0:00:03.00

Peak level 19.5 % Extraction speed 1.5 X Track quality 100.0 % Test CRC 5C2DB01E Copy CRC 5C2DB01E Track not present in AccurateRip database Copy OK

Track 7

Filename D:\CUE FILE\Perche Quelle Strane Gocce Di Sangue Sul Corpo Di Jennifer\07 - Perché Quelle Strane Gocce...Sequence 07 - Coffee Time.wav

Pre-gap length 0:00:03.00

Peak level 39.0 % Extraction speed 1.9 X Track quality 99.9 % Test CRC A63764FD Copy CRC A63764FD Track not present in AccurateRip database Copy OK

Track 8

Filename D:\CUE FILE\Perche Quelle Strane Gocce Di Sangue Sul Corpo Di Jennifer\08 - Perché Quelle Strane Gocce...Sequence 08 - Fear Of Blood.wav

Pre-gap length 0:00:03.00

Peak level 25.2 % Extraction speed 1.5 X Track quality 100.0 % Test CRC D5090F00 Copy CRC D5090F00 Track not present in AccurateRip database Copy OK

Track 9

Filename D:\CUE FILE\Perche Quelle Strane Gocce Di Sangue Sul Corpo Di Jennifer\09 - Perché Quelle Strane Gocce...Sequence 09 - Killer Violin.wav

Pre-gap length 0:00:03.00

Peak level 13.4 % Extraction speed 2.2 X Track quality 100.0 % Test CRC 091BB19E Copy CRC 091BB19E Track not present in AccurateRip database Copy OK

Track 10

Filename D:\CUE FILE\Perche Quelle Strane Gocce Di Sangue Sul Corpo Di Jennifer\10 - Perché Quelle Strane Gocce...Sequence 10 - Ambush.wav

Pre-gap length 0:00:03.00

Peak level 46.3 % Extraction speed 1.5 X Track quality 100.0 % Test CRC 95B4F897 Copy CRC 95B4F897 Track not present in AccurateRip database Copy OK

Track 11

Filename D:\CUE FILE\Perche Quelle Strane Gocce Di Sangue Sul Corpo Di Jennifer\11 - Perché Quelle Strane Gocce...Sequence 11 - Night Visitor.wav

Pre-gap length 0:00:03.00

Peak level 32.9 % Extraction speed 2.4 X Track quality 100.0 % Test CRC 47CE6C35 Copy CRC 47CE6C35 Track not present in AccurateRip database Copy OK

Track 12

Filename D:\CUE FILE\Perche Quelle Strane Gocce Di Sangue Sul Corpo Di Jennifer\12 - Perché Quelle Strane Gocce...Sequence 12 - Jennifer's Walk.wav

Pre-gap length 0:00:03.00

Peak level 40.0 % Extraction speed 1.6 X Track quality 100.0 % Test CRC 7EDD3018 Copy CRC 7EDD3018 Track not present in AccurateRip database Copy OK

Track 13

Filename D:\CUE FILE\Perche Quelle Strane Gocce Di Sangue Sul Corpo Di Jennifer\13 - Perché Quelle Strane Gocce...Sequence 13 - A Living Nightmare.wav

Pre-gap length 0:00:03.00

Peak level 35.6 % Extraction speed 1.5 X Track quality 99.8 % Test CRC 1930ECFA Copy CRC 1930ECFA Track not present in AccurateRip database Copy OK

Track 14

Filename D:\CUE FILE\Perche Quelle Strane Gocce Di Sangue Sul Corpo Di Jennifer\14 - Perché Quelle Strane Gocce...Sequence 14 - Rendez-vous With Jennifer.wav

Pre-gap length 0:00:03.00

Peak level 36.6 % Extraction speed 2.2 X Track quality 100.0 % Test CRC 99B0F6D3 Copy CRC 99B0F6D3 Track not present in AccurateRip database Copy OK

Track 15

Filename D:\CUE FILE\Perche Quelle Strane Gocce Di Sangue Sul Corpo Di Jennifer\15 - Perché Quelle Strane Gocce...Sequence 15 - A Deadly Visit.wav

Pre-gap length 0:00:03.00

Peak level 35.6 % Extraction speed 2.6 X Track quality 100.0 % Test CRC 53D3EC62 Copy CRC 53D3EC62 Track not present in AccurateRip database Copy OK

Track 16

Filename D:\CUE FILE\Perche Quelle Strane Gocce Di Sangue Sul Corpo Di Jennifer\16 - Perché Quelle Strane Gocce...Sequence 16 - The Bloody Iris.wav

Pre-gap length 0:00:03.00

Peak level 31.2 % Extraction speed 1.4 X Track quality 100.0 % Test CRC 4983A25D Copy CRC 4983A25D Track not present in AccurateRip database Copy OK

Track 17

Filename D:\CUE FILE\Perche Quelle Strane Gocce Di Sangue Sul Corpo Di Jennifer\17 - Perché Quelle Strane Gocce...Sequence 17 - Love Scene.wav

Pre-gap length 0:00:03.00

Peak level 36.4 % Extraction speed 2.9 X Track quality 100.0 % Test CRC 4AD946F2 Copy CRC 4AD946F2 Track not present in AccurateRip database Copy OK

Track 18

Filename D:\CUE FILE\Perche Quelle Strane Gocce Di Sangue Sul Corpo Di Jennifer\18 - Perché Quelle Strane Gocce...Sequence 18 - Pursuit.wav

Pre-gap length 0:00:03.00

Peak level 37.0 % Extraction speed 2.8 X Track quality 100.0 % Test CRC E6A1D571 Copy CRC E6A1D571 Track not present in AccurateRip database Copy OK

Track 19

Filename D:\CUE FILE\Perche Quelle Strane Gocce Di Sangue Sul Corpo Di Jennifer\19 - Perché Quelle Strane Gocce...Sequence 19 - Strange Neighbours.wav

Pre-gap length 0:00:03.00

Peak level 34.1 % Extraction speed 3.1 X Track quality 100.0 % Test CRC CE44DC48 Copy CRC CE44DC48 Track not present in AccurateRip database Copy OK

Track 20

Filename D:\CUE FILE\Perche Quelle Strane Gocce Di Sangue Sul Corpo Di Jennifer\20 - Perché Quelle Strane Gocce...Sequence 20 - Jennifer Escapes.wav

Pre-gap length 0:00:03.00

Peak level 42.5 % Extraction speed 2.3 X Track quality 100.0 % Test CRC 88A0F6DF Copy CRC 88A0F6DF Track not present in AccurateRip database Copy OK

Track 21

Filename D:\CUE FILE\Perche Quelle Strane Gocce Di Sangue Sul Corpo Di Jennifer\21 - Perché Quelle Strane Gocce...Sequence 21 - Panic In The Elevator - Terror In The Cellar.wav

Pre-gap length 0:00:03.00

Peak level 35.3 % Extraction speed 3.3 X Track quality 100.0 % Test CRC FF83AC1E Copy CRC FF83AC1E Track not present in AccurateRip database Copy OK

Track 22

Filename D:\CUE FILE\Perche Quelle Strane Gocce Di Sangue Sul Corpo Di Jennifer\22 - Perché Quelle Strane Gocce...Sequence 22 - Fear Of Blood Flashback - The Nightmare Is Over.wav

Pre-gap length 0:00:03.00

Peak level 29.5 % Extraction speed 2.7 X Track quality 100.0 % Test CRC 5093C337 Copy CRC 5093C337 Track not present in AccurateRip database Copy OK

Track 23

Filename D:\CUE FILE\Perche Quelle Strane Gocce Di Sangue Sul Corpo Di Jennifer\23 - Perché Quelle Strane Gocce...Sequence 23 - End Titles.wav

Pre-gap length 0:00:03.00

Peak level 42.1 % Extraction speed 2.4 X Track quality 100.0 % Test CRC 19AFCA89 Copy CRC 19AFCA89 Track not present in AccurateRip database Copy OK

Track 24

Filename D:\CUE FILE\Perche Quelle Strane Gocce Di Sangue Sul Corpo Di Jennifer\24 - Perché Quelle Strane Gocce...Sequence 24 - Pursuit (Alternate Version).wav

Pre-gap length 0:00:06.00

Peak level 33.0 % Extraction speed 3.2 X Track quality 100.0 % Test CRC D7D5FB28 Copy CRC D7D5FB28 Track not present in AccurateRip database Copy OK

Track 25

Filename D:\CUE FILE\Perche Quelle Strane Gocce Di Sangue Sul Corpo Di Jennifer\25 - Perché Quelle Strane Gocce...Sequence 25 - Pursuit (Alternate Version 2).wav

Pre-gap length 0:00:03.00

Peak level 35.2 % Extraction speed 3.5 X Track quality 100.0 % Test CRC 7B1FA9F1 Copy CRC 7B1FA9F1 Track not present in AccurateRip database Copy OK

Track 26

Filename D:\CUE FILE\Perche Quelle Strane Gocce Di Sangue Sul Corpo Di Jennifer\26 - Perché Quelle Strane Gocce...Sequence 26 - Main Titles (Alternate Long Version).wav

Pre-gap length 0:00:03.00

Peak level 38.1 % Extraction speed 3.3 X Track quality 100.0 % Test CRC B2DD04D7 Copy CRC B2DD04D7 Track not present in AccurateRip database Copy OK

None of the tracks are present in the AccurateRip database

No errors occurred

End of status report

---- CUETools DB Plugin V2.1.3

[CTDB TOCID: XQFDQnfmt620gu0OyQZNsOzh9iI-] found, Submit result: XQFDQnfmt620gu0OyQZNsOzh9iI- has been confirmed[b69da4ee] (1/1) Accurately ripped

==== Log checksum 2E0FCC68965F064B9B6BE733026F4B8DDAA2CB87D468A7D8A6EFBB3BF9FE5F5B ====
REM GENRE SoundtrackREM DATE 1972REM DISCID 620EB51AREM COMMENT "ExactAudioCopy v1.0b3"PERFORMER "Bruno Nicolai"TITLE "Perche' Quelle Strane Gocce Di Sangue Sul Corpo Di Jennifer?"FILE "01 Perche' Quelle Strane Gocce Di Sangue Sul Corpo Di Jennifer - Seq. 1 - Main Titles.wav" WAVE TRACK 01 AUDIO TITLE "Perche' Quelle Strane Gocce Di Sangue Sul Corpo Di Jennifer? - Seq. 1 - Main Titles" PERFORMER "Bruno Nicolai" ISRC ITD410400001 INDEX 01 00:00:00 TRACK 02 AUDIO TITLE "Perche' Quelle Strane Gocce Di Sangue Sul Corpo Di Jennifer? - Seq. 2 - Murder In The Elevator" PERFORMER "Bruno Nicolai" ISRC ITD410400002 INDEX 00 02:09:74FILE "02 Perche' Quelle Strane Gocce Di Sangue Sul Corpo Di Jennifer - Seq. 2 - Murder In The Elevator.wav" WAVE INDEX 01 00:00:00 TRACK 03 AUDIO TITLE "Perche' Quelle Strane Gocce Di Sangue Sul Corpo Di Jennifer? - Seq. 3 - Fashion Photographer - Night Club Show" PERFORMER "Bruno Nicolai" ISRC ITD410400003 INDEX 00 04:52:17FILE "03 Perche' Quelle Strane Gocce Di Sangue Sul Corpo Di Jennifer - Seq. 3 - Fashion Photographer - Night Club Show.wav" WAVE INDEX 01 00:00:00 TRACK 04 AUDIO TITLE "Perche' Quelle Strane Gocce Di Sangue Sul Corpo Di Jennifer? - Seq. 4 - Jennifer's Vision" PERFORMER "Bruno Nicolai" ISRC ITD410400004 INDEX 00 06:10:10FILE "04 Perche' Quelle Strane Gocce Di Sangue Sul Corpo Di Jennifer - Seq. 4 - Jennifer's Vision.wav" WAVE INDEX 01 00:00:00 TRACK 05 AUDIO TITLE "Perche' Quelle Strane Gocce Di Sangue Sul Corpo Di Jennifer? - Seq. 5 - Pursuited - Jennifer's Recall" PERFORMER "Bruno Nicolai" ISRC ITD410400005 INDEX 00 00:36:44FILE "05 Perche' Quelle Strane Gocce Di Sangue Sul Corpo Di Jennifer - Seq. 5 - Pursuited - Jennifer's Recall.wav" WAVE INDEX 01 00:00:00 TRACK 06 AUDIO TITLE "Perche' Quelle Strane Gocce Di Sangue Sul Corpo Di Jennifer? - Seq. 6 - Murder Flashback" PERFORMER "Bruno Nicolai" ISRC ITD410400006 INDEX 00 03:46:20FILE "06 Perche' Quelle Strane Gocce Di Sangue Sul Corpo Di Jennifer - Seq. 6 - Murder Flashback.wav" WAVE INDEX 01 00:00:00 TRACK 07 AUDIO TITLE "Perche' Quelle Strane Gocce Di Sangue Sul Corpo Di Jennifer? - Seq. 7 - Coffee Time" PERFORMER "Bruno Nicolai" ISRC ITD410400007 INDEX 00 00:53:24FILE "07 Perche' Quelle Strane Gocce Di Sangue Sul Corpo Di Jennifer - Seq. 7 - Coffee Time.wav" WAVE INDEX 01 00:00:00 TRACK 08 AUDIO TITLE "Perche' Quelle Strane Gocce Di Sangue Sul Corpo Di Jennifer? - Seq. 8 - Fear Of Blood" PERFORMER "Bruno Nicolai" ISRC ITD410400008 INDEX 00 02:43:71FILE "08 Perche' Quelle Strane Gocce Di Sangue Sul Corpo Di Jennifer - Seq. 8 - Fear Of Blood.wav" WAVE INDEX 01 00:00:00 TRACK 09 AUDIO TITLE "Perche' Quelle Strane Gocce Di Sangue Sul Corpo Di Jennifer? - Seq. 9 - Killer Violin" PERFORMER "Bruno Nicolai" ISRC ITD410400009 INDEX 00 00:46:74FILE "09 Perche' Quelle Strane Gocce Di Sangue Sul Corpo Di Jennifer - Seq. 9 - Killer Violin.wav" WAVE INDEX 01 00:00:00 TRACK 10 AUDIO TITLE "Perche' Quelle Strane Gocce Di Sangue Sul Corpo Di Jennifer? - Seq. 10 - Ambush" PERFORMER "Bruno Nicolai" ISRC ITD410400010 INDEX 00 01:48:72FILE "10 Perche' Quelle Strane Gocce Di Sangue Sul Corpo Di Jennifer - Seq. 10 - Ambush.wav" WAVE INDEX 01 00:00:00 TRACK 11 AUDIO TITLE "Perche' Quelle Strane Gocce Di Sangue Sul Corpo Di Jennifer? - Seq. 11 - Night Visitor" PERFORMER "Bruno Nicolai" ISRC ITD410400011 INDEX 00 00:35:52FILE "11 Perche' Quelle Strane Gocce Di Sangue Sul Corpo Di Jennifer - Seq. 11 - Night Visitor.wav" WAVE INDEX 01 00:00:00 TRACK 12 AUDIO TITLE "Perche' Quelle Strane Gocce Di Sangue Sul Corpo Di Jennifer? - Seq. 12 - Jennifer's Walk" PERFORMER "Bruno Nicolai" ISRC ITD410400012 INDEX 00 02:24:37FILE "12 Perche' Quelle Strane Gocce Di Sangue Sul Corpo Di Jennifer - Seq. 12 - Jennifer's Walk.wav" WAVE INDEX 01 00:00:00 TRACK 13 AUDIO TITLE "Perche' Quelle Strane Gocce Di Sangue Sul Corpo Di Jennifer? - Seq. 13 - A Living Nightmare" PERFORMER "Bruno Nicolai" ISRC ITD410400013 INDEX 00 00:40:43FILE "13 Perche' Quelle Strane Gocce Di Sangue Sul Corpo Di Jennifer - Seq. 13 - A Living Nightmare.wav" WAVE INDEX 01 00:00:00 TRACK 14 AUDIO TITLE "Perche' Quelle Strane Gocce Di Sangue Sul Corpo Di Jennifer? - Seq. 14 - Rendez-Vous With Jennifer" PERFORMER "Bruno Nicolai" ISRC ITD410400014 INDEX 00 01:07:04FILE "14 Perche' Quelle Strane Gocce Di Sangue Sul Corpo Di Jennifer - Seq. 14 - Rendez-Vous With Jennifer.wav" WAVE INDEX 01 00:00:00 TRACK 15 AUDIO TITLE "Perche' Quelle Strane Gocce Di Sangue Sul Corpo Di Jennifer? - Seq. 15 - A Deadly Visit" PERFORMER "Bruno Nicolai" ISRC ITD410400015 INDEX 00 01:22:67FILE "15 Perche' Quelle Strane Gocce Di Sangue Sul Corpo Di Jennifer - Seq. 15 - A Deadly Visit.wav" WAVE INDEX 01 00:00:00 TRACK 16 AUDIO TITLE "Perche' Quelle Strane Gocce Di Sangue Sul Corpo Di Jennifer? - Seq. 16 - The Bloody Iris" PERFORMER "Bruno Nicolai" ISRC ITD410400016 INDEX 00 02:20:49FILE "16 Perche' Quelle Strane Gocce Di Sangue Sul Corpo Di Jennifer - Seq. 16 - The Bloody Iris.wav" WAVE INDEX 01 00:00:00 TRACK 17 AUDIO TITLE "Perche' Quelle Strane Gocce Di Sangue Sul Corpo Di Jennifer? - Seq. 17 - Love Scene" PERFORMER "Bruno Nicolai" ISRC ITD410400017 INDEX 00 00:27:56FILE "17 Perche' Quelle Strane Gocce Di Sangue Sul Corpo Di Jennifer - Seq. 17 - Love Scene.wav" WAVE INDEX 01 00:00:00 TRACK 18 AUDIO TITLE "Perche' Quelle Strane Gocce Di Sangue Sul Corpo Di Jennifer? - Seq. 18 - Pursuit" PERFORMER "Bruno Nicolai" ISRC ITD410400018 INDEX 00 03:47:13FILE "18 Perche' Quelle Strane Gocce Di Sangue Sul Corpo Di Jennifer - Seq. 18 - Pursuit.wav" WAVE INDEX 01 00:00:00 TRACK 19 AUDIO TITLE "Perche' Quelle Strane Gocce Di Sangue Sul Corpo Di Jennifer? - Seq. 19 - Strange Neighbours" PERFORMER "Bruno Nicolai" ISRC ITD410400019 INDEX 00 02:47:57FILE "19 Perche' Quelle Strane Gocce Di Sangue Sul Corpo Di Jennifer - Seq. 19 - Strange Neighbours.wav" WAVE INDEX 01 00:00:00 TRACK 20 AUDIO TITLE "Perche' Quelle Strane Gocce Di Sangue Sul Corpo Di Jennifer? - Seq. 20 - Jennifer Escapes" PERFORMER "Bruno Nicolai" ISRC ITD410400020 INDEX 00 03:49:47FILE "20 Perche' Quelle Strane Gocce Di Sangue Sul Corpo Di Jennifer - Seq. 20 - Jennifer Escapes.wav" WAVE INDEX 01 00:00:00 TRACK 21 AUDIO TITLE "Perche' Quelle Strane Gocce Di Sangue Sul Corpo Di Jennifer? - Seq. 21 - Panic In The Elevator - Terror In The Cellar" PERFORMER "Bruno Nicolai" ISRC ITD410400021 INDEX 00 01:03:17FILE "21 Perche' Quelle Strane Gocce Di Sangue Sul Corpo Di Jennifer - Seq. 21 - Panic In The Elevator - Terror In The Cellar.wav" WAVE INDEX 01 00:00:00 TRACK 22 AUDIO TITLE "Perche' Quelle Strane Gocce Di Sangue Sul Corpo Di Jennifer? - Seq. 22 - Fear Of Blood Flashback - The Nightmare Is Over" PERFORMER "Bruno Nicolai" ISRC ITD410400022 INDEX 00 04:55:51FILE "22 Perche' Quelle Strane Gocce Di Sangue Sul Corpo Di Jennifer - Seq. 22 - Fear Of Blood Flashback - The Nightmare Is Over.wav" WAVE INDEX 01 00:00:00 TRACK 23 AUDIO TITLE "Perche' Quelle Strane Gocce Di Sangue Sul Corpo Di Jennifer? - Seq. 23 - End Titles" PERFORMER "Bruno Nicolai" ISRC ITD410400023 INDEX 00 01:22:15FILE "23 Perche' Quelle Strane Gocce Di Sangue Sul Corpo Di Jennifer - Seq. 23 - End Titles.wav" WAVE INDEX 01 00:00:00 TRACK 24 AUDIO TITLE "Perche' Quelle Strane Gocce Di Sangue Sul Corpo Di Jennifer? - Seq. 24 - Pursuit (Alternate Version)" PERFORMER "Bruno Nicolai" ISRC ITD410400024 INDEX 00 01:02:10FILE "24 Perche' Quelle Strane Gocce Di Sangue Sul Corpo Di Jennifer - Seq. 24 - Pursuit (Alternate Version).wav" WAVE INDEX 01 00:00:00 TRACK 25 AUDIO TITLE "Perche' Quelle Strane Gocce Di Sangue Sul Corpo Di Jennifer? - Seq. 25 - Pursuit (Alternate Version 2)" PERFORMER "Bruno Nicolai" ISRC ITD410400025 INDEX 00 02:38:43FILE "25 Perche' Quelle Strane Gocce Di Sangue Sul Corpo Di Jennifer - Seq. 25 - Pursuit (Alternate Version 2).wav" WAVE INDEX 01 00:00:00 TRACK 26 AUDIO TITLE "Perche' Quelle Strane Gocce Di Sangue Sul Corpo Di Jennifer? - Seq. 26 - Main Titles (Alternate Long Version)" PERFORMER "Bruno Nicolai" ISRC ITD410400026 INDEX 00 04:30:23FILE "26 Perche' Quelle Strane Gocce Di Sangue Sul Corpo Di Jennifer - Seq. 26 - Main Titles (Alternate Long Version).wav" WAVE INDEX 01 00:00:00




Трекер:  [ 12-Июн-2013 16:40 ]

  

Скачать .torrent

Размер .torrent файла 16 KB


Размер: 301 MB
Хэш (hash) релиза: 7f8b317b8e523d33760234e6c6bf54a16ae0d141

bot

Топик был перенесен в форум Саундтреки к фильмам и мультфильмам (lossless)

Перенес Galfimbul

Хотите добавить комментарий к записи скачать торрент Ирис в крови Дело об окровавленном ирисе

!Обратная связь