Скачать через торрент музыку Астрал Insidious бесплатно без регистрации torrent

Если у вас наблюдаются проблемы со скриншотами, переходом по ссылками, скачиванием торрентов - проблемы в блокировщике рекламы AdBlock. #хорошегоДня!


Статистика раздачи
Размер:  168 MB   |    Зарегистрирован:  4 года 6 месяцев   |    .torrent скачан:  26 раз   |   
Раздают:  1  
   
Загрузка...
 
Автор Сообщение

Galfimbul

avatar Galfimbul


Астрал / Insidious

Жанр: Score
Композитор: Joseph Bishara
Год выпуска диска: 2011
Год выпуска фильма: 2010
Страна-производитель диска: США
Издатель (лейбл): Void Recordings
Номер по каталогу: VR01

Аудиокодек: FLAC (*.flac)
Тип рипа: tracks+.cue
Битрейт аудио: lossless
Продолжительность: 40:32

Источник: forums.ffshrine.org
Наличие сканов в содержимом раздачи: нет

Доп. информация: Признаться честно, давненько я такой жути не слыхивал!
Не скажу, что саундтрек богат на разнообразие музыкальных тем, но ощущение неожиданного внезапного ужаса "из-за угла" меня не покидало даже в самых спокойных фортепианных композициях, про перегруженные струнные темы я вообще молчу.
Для любителей действительно пощекотать нервы - отличная музыка!

К сожалению, рип сделан без режима Test&Copy, но во всём остальном ошибок нет. Сканов, увы, тоже.
01 The Insidious Plane (1:45)
02 Insidious (2:11)
03 Give It Time (0:56)
04 Unawakened (Movement 1) (1:10)
05 Unawakened (Movement 2) (1:20)
06 Voices In The Static (0:51)
07 It Said It Was A Visitor (0:47)
08 Hallway Twins (0:26)
09 Hooves For Feet (1:13)
10 The Further (4:32)
11 Broken Open (2:20)
12 Gas Mask Vision (1:41)
13 Muted Whisperings (1:36)
14 Leave This Vessel (1:20)
15 Night Terror (2:57)
16 Bring Him Back (0:54)
17 Into The Further (1:03)
18 Into The Lair (1:20)
19 He's Looking At Us (1:01)
20 They're Coming Through (1:26)
21 Slithers Into Fog (1:09)
22 The Child Awake (1:07)
23 A New World (0:39)
24 Dark Boundaries Crossed (1:45)
25 Void Figure 7 (3:21)
26 Void Moment Suite (1:40)

Exact Audio Copy V1.0 beta 3 from 29. August 2011

EAC extraction logfile from 8. October 2012, 10:27

Joseph Bishara / Insidious

Used drive : HL-DT-STBDDVDRW CH10LS20 Adapter: 2 ID: 1

Read mode : SecureUtilize accurate stream : YesDefeat audio cache : YesMake use of C2 pointers : No

Read offset correction : 667Overread into Lead-In and Lead-Out : NoFill up missing offset samples with silence : YesDelete leading and trailing silent blocks : NoNull samples used in CRC calculations : YesUsed interface : Native Win32 interface for Win NT & 2000Gap handling : Appended to previous track

Used output format : User Defined EncoderSelected bitrate : 768 kBit/sQuality : HighAdd ID3 tag : NoCommand line compressor : C:\Program Files\Exact Audio Copy\FLAC\FLAC.EXEAdditional command line options : -8 -V -T "ARTIST=%artist%" -T "TITLE=%title%" -T "ALBUM=%albumtitle%" -T "DATE=%year%" -T "TRACKNUMBER=%tracknr%" -T "GENRE=%genre%" -T "COMMENT=%comment%" -T "BAND=%albuminterpret%" -T "ALBUMARTIST=%albuminterpret%" -T "COMPOSER=%composer%" %haslyrics%--tag-from-file=LYRICS="%lyricsfile%"%haslyrics% -T "DISCNUMBER=%cdnumber%" -T "TOTALDISCS=%totalcds%" -T "TOTALTRACKS=%numtracks%" %hascover%--picture="%coverfile%"%hascover% %source% -o %dest%

TOC of the extracted CD

Track | Start | Length | Start sector | End sector --------------------------------------------------------- 1 | 0:00.00 | 1:45.04 | 0 | 7878 2 | 1:45.04 | 2:10.65 | 7879 | 17693 3 | 3:55.69 | 0:56.10 | 17694 | 21903 4 | 4:52.04 | 1:10.36 | 21904 | 27189 5 | 6:02.40 | 1:20.36 | 27190 | 33225 6 | 7:23.01 | 0:51.32 | 33226 | 37082 7 | 8:14.33 | 0:47.14 | 37083 | 40621 8 | 9:01.47 | 0:26.34 | 40622 | 42605 9 | 9:28.06 | 1:12.40 | 42606 | 48045 10 | 10:40.46 | 4:32.25 | 48046 | 68470 11 | 15:12.71 | 2:20.04 | 68471 | 78974 12 | 17:33.00 | 1:40.58 | 78975 | 86532 13 | 19:13.58 | 1:35.44 | 86533 | 93701 14 | 20:49.27 | 1:19.49 | 93702 | 99675 15 | 22:09.01 | 2:57.11 | 99676 | 112961 16 | 25:06.12 | 0:54.03 | 112962 | 117014 17 | 26:00.15 | 1:03.05 | 117015 | 121744 18 | 27:03.20 | 1:20.31 | 121745 | 127775 19 | 28:23.51 | 1:00.53 | 127776 | 132328 20 | 29:24.29 | 1:26.10 | 132329 | 138788 21 | 30:50.39 | 1:09.00 | 138789 | 143963 22 | 31:59.39 | 1:07.31 | 143964 | 149019 23 | 33:06.70 | 0:39.03 | 149020 | 151947 24 | 33:45.73 | 1:45.06 | 151948 | 159828 25 | 35:31.04 | 3:21.31 | 159829 | 174934 26 | 38:52.35 | 1:40.06 | 174935 | 182440

Track 1

Filename D:\EAC Rips\Joseph Bishara - Insidious\01 - the Insidious plane.wav

Pre-gap length 0:00:02.00

Peak level 100.0 % Extraction speed 0.9 X Track quality 100.0 % Copy CRC D6D99F04 Track not present in AccurateRip database Copy OK

Track 2

Filename D:\EAC Rips\Joseph Bishara - Insidious\02 - Insidious.wav

Peak level 24.4 % Extraction speed 1.0 X Track quality 100.0 % Copy CRC 4CB5183F Track not present in AccurateRip database Copy OK

Track 3

Filename D:\EAC Rips\Joseph Bishara - Insidious\03 - Give It Time.wav

Peak level 40.9 % Extraction speed 0.7 X Track quality 100.0 % Copy CRC 7F6EF4D6 Track not present in AccurateRip database Copy OK

Track 4

Filename D:\EAC Rips\Joseph Bishara - Insidious\04 - Unawakened (Mvmt1).wav

Peak level 77.7 % Extraction speed 0.9 X Track quality 100.0 % Copy CRC C9FDEC79 Track not present in AccurateRip database Copy OK

Track 5

Filename D:\EAC Rips\Joseph Bishara - Insidious\05 - Unawakened (Mvmt2).wav

Peak level 33.7 % Extraction speed 0.9 X Track quality 100.0 % Copy CRC 3E4C7FC4 Track not present in AccurateRip database Copy OK

Track 6

Filename D:\EAC Rips\Joseph Bishara - Insidious\06 - Voices In The Static.wav

Peak level 100.0 % Extraction speed 0.6 X Track quality 99.7 % Copy CRC 607285BF Track not present in AccurateRip database Copy OK

Track 7

Filename D:\EAC Rips\Joseph Bishara - Insidious\07 - It Said It Was A Visitor.wav

Peak level 100.0 % Extraction speed 0.8 X Track quality 100.0 % Copy CRC E9AA264D Track not present in AccurateRip database Copy OK

Track 8

Filename D:\EAC Rips\Joseph Bishara - Insidious\08 - Hallway Twins.wav

Peak level 100.0 % Extraction speed 0.6 X Track quality 100.0 % Copy CRC C267F1FF Track not present in AccurateRip database Copy OK

Track 9

Filename D:\EAC Rips\Joseph Bishara - Insidious\09 - Hooves For Feet.wav

Peak level 49.7 % Extraction speed 1.0 X Track quality 100.0 % Copy CRC 0E937236 Track not present in AccurateRip database Copy OK

Track 10

Filename D:\EAC Rips\Joseph Bishara - Insidious\10 - the Further.wav

Peak level 93.4 % Extraction speed 1.4 X Track quality 100.0 % Copy CRC C7550C43 Track not present in AccurateRip database Copy OK

Track 11

Filename D:\EAC Rips\Joseph Bishara - Insidious\11 - Broken Open.wav

Peak level 28.0 % Extraction speed 1.1 X Track quality 99.9 % Copy CRC 821936D6 Track not present in AccurateRip database Copy OK

Track 12

Filename D:\EAC Rips\Joseph Bishara - Insidious\12 - Gas Mask Vision.wav

Peak level 62.1 % Extraction speed 1.2 X Track quality 100.0 % Copy CRC 5139C2E9 Track not present in AccurateRip database Copy OK

Track 13

Filename D:\EAC Rips\Joseph Bishara - Insidious\13 - Muted Whisperings.wav

Peak level 42.3 % Extraction speed 1.0 X Track quality 99.8 % Copy CRC 3B36E1F5 Track not present in AccurateRip database Copy OK

Track 14

Filename D:\EAC Rips\Joseph Bishara - Insidious\14 - Leave This Vessel.wav

Peak level 100.0 % Extraction speed 0.9 X Track quality 99.8 % Copy CRC 53E731A2 Track not present in AccurateRip database Copy OK

Track 15

Filename D:\EAC Rips\Joseph Bishara - Insidious\15 - Night Terror.wav

Peak level 19.9 % Extraction speed 1.5 X Track quality 100.0 % Copy CRC 38C073FB Track not present in AccurateRip database Copy OK

Track 16

Filename D:\EAC Rips\Joseph Bishara - Insidious\16 - Bring Him Back.wav

Peak level 21.6 % Extraction speed 1.1 X Track quality 100.0 % Copy CRC 522BA0F8 Track not present in AccurateRip database Copy OK

Track 17

Filename D:\EAC Rips\Joseph Bishara - Insidious\17 - into the Further.wav

Peak level 100.0 % Extraction speed 0.9 X Track quality 99.8 % Copy CRC 64C932E9 Track not present in AccurateRip database Copy OK

Track 18

Filename D:\EAC Rips\Joseph Bishara - Insidious\18 - Into The Lair.wav

Peak level 85.5 % Extraction speed 1.3 X Track quality 100.0 % Copy CRC B1F04113 Track not present in AccurateRip database Copy OK

Track 19

Filename D:\EAC Rips\Joseph Bishara - Insidious\19 - He's Looking At Us.wav

Peak level 100.0 % Extraction speed 0.9 X Track quality 99.8 % Copy CRC DE72710D Track not present in AccurateRip database Copy OK

Track 20

Filename D:\EAC Rips\Joseph Bishara - Insidious\20 - They're Coming Through.wav

Peak level 100.0 % Extraction speed 1.4 X Track quality 100.0 % Copy CRC EFC33C77 Track not present in AccurateRip database Copy OK

Track 21

Filename D:\EAC Rips\Joseph Bishara - Insidious\21 - Slithers Into Fog.wav

Peak level 100.0 % Extraction speed 1.3 X Track quality 100.0 % Copy CRC 8BD33D78 Track not present in AccurateRip database Copy OK

Track 22

Filename D:\EAC Rips\Joseph Bishara - Insidious\22 - The Child Awake.wav

Peak level 36.1 % Extraction speed 1.3 X Track quality 100.0 % Copy CRC BAF3634F Track not present in AccurateRip database Copy OK

Track 23

Filename D:\EAC Rips\Joseph Bishara - Insidious\23 - A New World.wav

Peak level 30.8 % Extraction speed 1.0 X Track quality 100.0 % Copy CRC 7966593F Track not present in AccurateRip database Copy OK

Track 24

Filename D:\EAC Rips\Joseph Bishara - Insidious\24 - Dark Boundaries Crossed.wav

Peak level 100.0 % Extraction speed 1.5 X Track quality 100.0 % Copy CRC 1A66D514 Track not present in AccurateRip database Copy OK

Track 25

Filename D:\EAC Rips\Joseph Bishara - Insidious\25 - Void Figure 7.wav

Peak level 65.9 % Extraction speed 1.8 X Track quality 100.0 % Copy CRC 49C4D11A Track not present in AccurateRip database Copy OK

Track 26

Filename D:\EAC Rips\Joseph Bishara - Insidious\26 - Void Moment Suite.wav

Peak level 100.0 % Extraction speed 1.6 X Track quality 100.0 % Copy CRC 28362D54 Track not present in AccurateRip database Copy OK

None of the tracks are present in the AccurateRip database

No errors occurred

End of status report

---- CUETools DB Plugin V2.1.3

[CTDB TOCID: OLyHi62F2ZpVr9LjEM2.dbL3RRA-] disk not present in database, Submit result: OLyHi62F2ZpVr9LjEM2.dbL3RRA- has been uploaded

==== Log checksum 581B7A5C84627C36786AB0201365C2D4523EA4759B60D8DDBAF503E43210AD3B ====
REM GENRE SoundtrackREM DATE 2011REM DISCID 4F09801AREM COMMENT "ExactAudioCopy v1.0b3"PERFORMER "Joseph Bishara"TITLE "Insidious"FILE "01 The Insidious Plane.wav" WAVE TRACK 01 AUDIO TITLE "The Insidious Plane" PERFORMER "Joseph Bishara" INDEX 01 00:00:00FILE "02 Insidious.wav" WAVE TRACK 02 AUDIO TITLE "Insidious" PERFORMER "Joseph Bishara" INDEX 01 00:00:00FILE "03 Give It Time.wav" WAVE TRACK 03 AUDIO TITLE "Give It Time" PERFORMER "Joseph Bishara" INDEX 01 00:00:00FILE "04 Unawakened (Movement 1).wav" WAVE TRACK 04 AUDIO TITLE "Unawakened (Movement 1)" PERFORMER "Joseph Bishara" INDEX 01 00:00:00FILE "05 Unawakened (Movement 2).wav" WAVE TRACK 05 AUDIO TITLE "Unawakened (Movement 2)" PERFORMER "Joseph Bishara" INDEX 01 00:00:00FILE "06 Voices In The Static.wav" WAVE TRACK 06 AUDIO TITLE "Voices In The Static" PERFORMER "Joseph Bishara" INDEX 01 00:00:00FILE "07 It Said It Was A Visitor.wav" WAVE TRACK 07 AUDIO TITLE "It Said It Was A Visitor" PERFORMER "Joseph Bishara" INDEX 01 00:00:00FILE "08 Hallway Twins.wav" WAVE TRACK 08 AUDIO TITLE "Hallway Twins" PERFORMER "Joseph Bishara" INDEX 01 00:00:00FILE "09 Hooves For Feet.wav" WAVE TRACK 09 AUDIO TITLE "Hooves For Feet" PERFORMER "Joseph Bishara" INDEX 01 00:00:00FILE "10 The Further.wav" WAVE TRACK 10 AUDIO TITLE "The Further" PERFORMER "Joseph Bishara" INDEX 01 00:00:00FILE "11 Broken Open.wav" WAVE TRACK 11 AUDIO TITLE "Broken Open" PERFORMER "Joseph Bishara" INDEX 01 00:00:00FILE "12 Gas Mask Vision.wav" WAVE TRACK 12 AUDIO TITLE "Gas Mask Vision" PERFORMER "Joseph Bishara" INDEX 01 00:00:00FILE "13 Muted Whisperings.wav" WAVE TRACK 13 AUDIO TITLE "Muted Whisperings" PERFORMER "Joseph Bishara" INDEX 01 00:00:00FILE "14 Leave This Vessel.wav" WAVE TRACK 14 AUDIO TITLE "Leave This Vessel" PERFORMER "Joseph Bishara" INDEX 01 00:00:00FILE "15 Night Terror.wav" WAVE TRACK 15 AUDIO TITLE "Night Terror" PERFORMER "Joseph Bishara" INDEX 01 00:00:00FILE "16 Bring Him Back.wav" WAVE TRACK 16 AUDIO TITLE "Bring Him Back" PERFORMER "Joseph Bishara" INDEX 01 00:00:00FILE "17 Into The Further.wav" WAVE TRACK 17 AUDIO TITLE "Into The Further" PERFORMER "Joseph Bishara" INDEX 01 00:00:00FILE "18 Into The Lair.wav" WAVE TRACK 18 AUDIO TITLE "Into The Lair" PERFORMER "Joseph Bishara" INDEX 01 00:00:00FILE "19 He's Looking At Us.wav" WAVE TRACK 19 AUDIO TITLE "He's Looking At Us" PERFORMER "Joseph Bishara" INDEX 01 00:00:00FILE "20 They're Coming Through.wav" WAVE TRACK 20 AUDIO TITLE "They're Coming Through" PERFORMER "Joseph Bishara" INDEX 01 00:00:00FILE "21 Slithers Into Fog.wav" WAVE TRACK 21 AUDIO TITLE "Slithers Into Fog" PERFORMER "Joseph Bishara" INDEX 01 00:00:00FILE "22 The Child Awake.wav" WAVE TRACK 22 AUDIO TITLE "The Child Awake" PERFORMER "Joseph Bishara" INDEX 01 00:00:00FILE "23 A New World.wav" WAVE TRACK 23 AUDIO TITLE "A New World" PERFORMER "Joseph Bishara" INDEX 01 00:00:00FILE "24 Dark Boundaries Crossed.wav" WAVE TRACK 24 AUDIO TITLE "Dark Boundaries Crossed" PERFORMER "Joseph Bishara" INDEX 01 00:00:00FILE "25 Void Figure 7.wav" WAVE TRACK 25 AUDIO TITLE "Void Figure 7" PERFORMER "Joseph Bishara" INDEX 01 00:00:00FILE "26 Void Moment Suite.wav" WAVE TRACK 26 AUDIO TITLE "Void Moment Suite" PERFORMER "Joseph Bishara" INDEX 01 00:00:00




Трекер:  [ 12-Июн-2013 16:40 ]

  

Скачать .torrent

Размер .torrent файла 15 KB


Размер: 168 MB
Хэш (hash) релиза: 98c99787ea9b03c08d23132435ce2279a488954d

bot

Топик был перенесен в форум Саундтреки к фильмам и мультфильмам (lossless)

Перенес Galfimbul

Хотите добавить комментарий к записи скачать торрент Астрал Insidious

!Обратная связь