Скачать через торрент музыку Мстители The Avengers бесплатно без регистрации torrent

Если у вас наблюдаются проблемы со скриншотами, переходом по ссылками, скачиванием торрентов - проблемы в блокировщике рекламы AdBlock. #хорошегоДня!


Статистика раздачи
Размер:  362 MB   |    Зарегистрирован:  4 года 6 месяцев   |    .torrent скачан:  35 раз   |   
Раздают:  1  
   
Загрузка...
 
Автор Сообщение

Galfimbul

avatar Galfimbul


МСТИТЕЛИ / THE AVENGERS


Жанр: Score
Композитор: Alan Silvestri
Год выпуска диска: 2012
Страна-производитель диска: US
Издатель (лейбл): Hollywood Records / Intrada Records
Аудиокодек: FLAC (*.flac)
Тип рипа: tracks+.cue
Битрейт аудио: lossless
Продолжительность: 1:16:17
Источник: what.cd

Треклист:
01. Arrival (3:01)
02. Doors Open From Both Sides (3:31)
03. Tunnel Chase (4:49)
04. Interrogation (2:40)
05. Stark Goes Green (4:47)
06. Helicarrier (2:10)
07. Subjugation (3:41)
08. Don't Take My Stuff (5:08)
09. Red Ledger (5:12)
10. Assault (4:26)
11. They Called It (2:43)
12. Performance Issues (4:57)
13. Seeing, Not Believing (4:26)
14. Assemble (5:23)
15. I Got A Ride (4:02)
16. A Little Help (3:51)
17. One Way Trip (5:53)
18. A Promise (3:36)
19. The Avengers (2:03)
Exact Audio Copy V1.0 beta 3 from 29. August 2011

EAC extraction logfile from 6. February 2013, 19:21

Alan Silvestri / The Avengers

Used drive : SlimtypeDVD A DS8A4SH Adapter: 0 ID: 1

Read mode : SecureUtilize accurate stream : YesDefeat audio cache : YesMake use of C2 pointers : No

Read offset correction : 6Overread into Lead-In and Lead-Out : NoFill up missing offset samples with silence : YesDelete leading and trailing silent blocks : NoNull samples used in CRC calculations : YesUsed interface : Native Win32 interface for Win NT & 2000Gap handling : Appended to previous track

Used output format : User Defined EncoderSelected bitrate : 1024 kBit/sQuality : HighAdd ID3 tag : NoCommand line compressor : C:\Program Files (x86)\Exact Audio Copy\FLAC\FLAC.EXEAdditional command line options : -8 -V -T "ARTIST=%artist%" -T "TITLE=%title%" -T "ALBUM=%albumtitle%" -T "DATE=%year%" -T "TRACKNUMBER=%tracknr%" -T "GENRE=%genre%" -T "PERFORMER=%albuminterpret%" -T "COMPOSER=%composer%" %haslyrics%--tag-from-file=LYRICS="%lyricsfile%"%haslyrics% -T "ALBUMARTIST=%albumartist%" -T "DISCNUMBER=%cdnumber%" -T "TOTALDISCS=%totalcds%" -T "TOTALTRACKS=%numtracks%" -T "COMMENT=%comment%" %source% -o %dest%

TOC of the extracted CD

Track | Start | Length | Start sector | End sector --------------------------------------------------------- 1 | 0:00.00 | 3:00.65 | 0 | 13564 2 | 3:00.65 | 3:30.59 | 13565 | 29373 3 | 6:31.49 | 4:49.03 | 29374 | 51051 4 | 11:20.52 | 2:39.41 | 51052 | 63017 5 | 14:00.18 | 4:47.05 | 63018 | 84547 6 | 18:47.23 | 2:10.14 | 84548 | 94311 7 | 20:57.37 | 3:41.07 | 94312 | 110893 8 | 24:38.44 | 5:07.66 | 110894 | 133984 9 | 29:46.35 | 5:11.72 | 133985 | 157381 10 | 34:58.32 | 4:26.07 | 157382 | 177338 11 | 39:24.39 | 2:42.71 | 177339 | 189559 12 | 42:07.35 | 4:57.07 | 189560 | 211841 13 | 47:04.42 | 4:25.56 | 211842 | 231772 14 | 51:30.23 | 5:22.69 | 231773 | 255991 15 | 56:53.17 | 4:01.48 | 255992 | 274114 16 | 60:54.65 | 3:50.71 | 274115 | 291435 17 | 64:45.61 | 5:52.44 | 291436 | 317879 18 | 70:38.30 | 3:36.01 | 317880 | 334080 19 | 74:14.31 | 2:03.27 | 334081 | 343332

Track 1

Filename C:\Users\KatZ\Desktop\Alan Silvestri-The Avengers-OST-CD-FLAC-2012-StarKy22\01 - Arrival.wav

Pre-gap length 0:00:02.00

Peak level 94.4 % Extraction speed 1.1 X Track quality 100.0 % Test CRC A8C20E21 Copy CRC A8C20E21 Accurately ripped (confidence 2) [40B98146] (AR v2) Copy OK

Track 2

Filename C:\Users\KatZ\Desktop\Alan Silvestri-The Avengers-OST-CD-FLAC-2012-StarKy22\02 - Doors Open From Both Sides.wav

Pre-gap length 0:00:01.00

Peak level 94.4 % Extraction speed 1.1 X Track quality 99.9 % Test CRC D96EDF4A Copy CRC D96EDF4A Accurately ripped (confidence 2) [5D2F23AD] (AR v2) Copy OK

Track 3

Filename C:\Users\KatZ\Desktop\Alan Silvestri-The Avengers-OST-CD-FLAC-2012-StarKy22\03 - Tunnel Chase.wav

Pre-gap length 0:00:01.00

Peak level 94.6 % Extraction speed 1.4 X Track quality 100.0 % Test CRC C028F9C6 Copy CRC C028F9C6 Accurately ripped (confidence 2) [518AA927] (AR v2) Copy OK

Track 4

Filename C:\Users\KatZ\Desktop\Alan Silvestri-The Avengers-OST-CD-FLAC-2012-StarKy22\04 - Interrogation.wav

Pre-gap length 0:00:01.77

Peak level 94.4 % Extraction speed 1.4 X Track quality 100.0 % Test CRC 40C7BF57 Copy CRC 40C7BF57 Accurately ripped (confidence 2) [94DCE02C] (AR v2) Copy OK

Track 5

Filename C:\Users\KatZ\Desktop\Alan Silvestri-The Avengers-OST-CD-FLAC-2012-StarKy22\05 - Stark Goes Green.wav

Pre-gap length 0:00:01.00

Peak level 96.3 % Extraction speed 1.6 X Track quality 100.0 % Test CRC DDA776D0 Copy CRC DDA776D0 Accurately ripped (confidence 2) [5460D620] (AR v2) Copy OK

Track 6

Filename C:\Users\KatZ\Desktop\Alan Silvestri-The Avengers-OST-CD-FLAC-2012-StarKy22\06 - Helicarrier.wav

Pre-gap length 0:00:01.00

Peak level 94.4 % Extraction speed 1.5 X Track quality 100.0 % Test CRC 02AFFDA4 Copy CRC 02AFFDA4 Accurately ripped (confidence 2) [65C1E8C6] (AR v2) Copy OK

Track 7

Filename C:\Users\KatZ\Desktop\Alan Silvestri-The Avengers-OST-CD-FLAC-2012-StarKy22\07 - Subjugation.wav

Pre-gap length 0:00:01.00

Peak level 97.6 % Extraction speed 1.5 X Track quality 99.9 % Test CRC 8E83BEA8 Copy CRC 8E83BEA8 Accurately ripped (confidence 2) [323B4B4C] (AR v2) Copy OK

Track 8

Filename C:\Users\KatZ\Desktop\Alan Silvestri-The Avengers-OST-CD-FLAC-2012-StarKy22\08 - Don't Take My Stuff.wav

Pre-gap length 0:00:01.00

Peak level 94.4 % Extraction speed 1.9 X Track quality 100.0 % Test CRC D18D0A56 Copy CRC D18D0A56 Accurately ripped (confidence 2) [755B1186] (AR v2) Copy OK

Track 9

Filename C:\Users\KatZ\Desktop\Alan Silvestri-The Avengers-OST-CD-FLAC-2012-StarKy22\09 - Red Ledger.wav

Pre-gap length 0:00:01.00

Peak level 100.0 % Extraction speed 2.0 X Track quality 100.0 % Test CRC E0CF06AA Copy CRC E0CF06AA Accurately ripped (confidence 2) [E9BF5807] (AR v2) Copy OK

Track 10

Filename C:\Users\KatZ\Desktop\Alan Silvestri-The Avengers-OST-CD-FLAC-2012-StarKy22\10 - Assault.wav

Pre-gap length 0:00:01.04

Peak level 94.6 % Extraction speed 2.0 X Track quality 100.0 % Test CRC 19ED9D9F Copy CRC 19ED9D9F Accurately ripped (confidence 2) [B62666F0] (AR v2) Copy OK

Track 11

Filename C:\Users\KatZ\Desktop\Alan Silvestri-The Avengers-OST-CD-FLAC-2012-StarKy22\11 - They Called It.wav

Pre-gap length 0:00:00.14

Peak level 70.0 % Extraction speed 1.9 X Track quality 100.0 % Test CRC 2B03C065 Copy CRC 2B03C065 Accurately ripped (confidence 2) [6C16FEAF] (AR v2) Copy OK

Track 12

Filename C:\Users\KatZ\Desktop\Alan Silvestri-The Avengers-OST-CD-FLAC-2012-StarKy22\12 - Performance Issues.wav

Pre-gap length 0:00:01.05

Peak level 98.0 % Extraction speed 2.2 X Track quality 100.0 % Test CRC 35442315 Copy CRC 35442315 Accurately ripped (confidence 2) [56FFD090] (AR v2) Copy OK

Track 13

Filename C:\Users\KatZ\Desktop\Alan Silvestri-The Avengers-OST-CD-FLAC-2012-StarKy22\13 - Seeing, Not Believing.wav

Pre-gap length 0:00:00.56

Peak level 94.4 % Extraction speed 2.2 X Track quality 100.0 % Test CRC 7213451E Copy CRC 7213451E Accurately ripped (confidence 2) [AE750CF3] (AR v2) Copy OK

Track 14

Filename C:\Users\KatZ\Desktop\Alan Silvestri-The Avengers-OST-CD-FLAC-2012-StarKy22\14 - Assemble.wav

Pre-gap length 0:00:00.70

Peak level 95.2 % Extraction speed 2.3 X Track quality 100.0 % Test CRC 1D5B2AF3 Copy CRC 1D5B2AF3 Accurately ripped (confidence 2) [EF281CB3] (AR v2) Copy OK

Track 15

Filename C:\Users\KatZ\Desktop\Alan Silvestri-The Avengers-OST-CD-FLAC-2012-StarKy22\15 - I Got A Ride.wav

Pre-gap length 0:00:01.00

Peak level 94.4 % Extraction speed 2.3 X Track quality 100.0 % Test CRC 87B76F6B Copy CRC 87B76F6B Accurately ripped (confidence 2) [7B2DF393] (AR v2) Copy OK

Track 16

Filename C:\Users\KatZ\Desktop\Alan Silvestri-The Avengers-OST-CD-FLAC-2012-StarKy22\16 - A Little Help.wav

Pre-gap length 0:00:01.00

Peak level 96.5 % Extraction speed 2.4 X Track quality 100.0 % Test CRC 96787908 Copy CRC 96787908 Accurately ripped (confidence 2) [B84B59DC] (AR v2) Copy OK

Track 17

Filename C:\Users\KatZ\Desktop\Alan Silvestri-The Avengers-OST-CD-FLAC-2012-StarKy22\17 - One Way Trip.wav

Pre-gap length 0:00:01.00

Peak level 99.0 % Extraction speed 2.3 X Track quality 99.9 % Test CRC 705C89BF Copy CRC 705C89BF Accurately ripped (confidence 2) [3A70D69B] (AR v2) Copy OK

Track 18

Filename C:\Users\KatZ\Desktop\Alan Silvestri-The Avengers-OST-CD-FLAC-2012-StarKy22\18 - A Promise.wav

Pre-gap length 0:00:02.21

Peak level 94.5 % Extraction speed 2.5 X Track quality 100.0 % Test CRC 2384DC46 Copy CRC 2384DC46 Accurately ripped (confidence 2) [95D9EDCE] (AR v2) Copy OK

Track 19

Filename C:\Users\KatZ\Desktop\Alan Silvestri-The Avengers-OST-CD-FLAC-2012-StarKy22\19 - The Avengers.wav

Pre-gap length 0:00:02.00

Peak level 94.4 % Extraction speed 2.2 X Track quality 100.0 % Test CRC 4374851E Copy CRC 4374851E Accurately ripped (confidence 2) [66504213] (AR v2) Copy OK

All tracks accurately ripped

No errors occurred

End of status report

==== Log checksum 83D560CBE0ABC6314CA9B6BE4B055D26AEF4B0179451916C4CA2863EF168C23F ====
REM GENRE SoundtrackREM DATE 2012REM DISCID 1C11E113REM COMMENT "ExactAudioCopy v1.0b3"CATALOG 0050087280703PERFORMER "Alan Silvestri"TITLE "The Avengers"FILE "01 - Arrival.wav" WAVE TRACK 01 AUDIO TITLE "Arrival" PERFORMER "Alan Silvestri" ISRC USHR11233646 INDEX 01 00:00:00FILE "02 - Doors Open From Both Sides.wav" WAVE TRACK 02 AUDIO TITLE "Doors Open From Both Sides" PERFORMER "Alan Silvestri" ISRC USHR11233647 PREGAP 00:01:00 INDEX 01 00:00:00FILE "03 - Tunnel Chase.wav" WAVE TRACK 03 AUDIO TITLE "Tunnel Chase" PERFORMER "Alan Silvestri" ISRC USHR11233648 PREGAP 00:01:00 INDEX 01 00:00:00FILE "04 - Interrogation.wav" WAVE TRACK 04 AUDIO TITLE "Interrogation" PERFORMER "Alan Silvestri" ISRC USHR11233649 PREGAP 00:01:58 INDEX 01 00:00:00FILE "05 - Stark Goes Green.wav" WAVE TRACK 05 AUDIO TITLE "Stark Goes Green" PERFORMER "Alan Silvestri" ISRC USHR11233650 PREGAP 00:01:00 INDEX 01 00:00:00FILE "06 - Helicarrier.wav" WAVE TRACK 06 AUDIO TITLE "Helicarrier" PERFORMER "Alan Silvestri" ISRC USHR11233651 PREGAP 00:01:00 INDEX 01 00:00:00FILE "07 - Subjugation.wav" WAVE TRACK 07 AUDIO TITLE "Subjugation" PERFORMER "Alan Silvestri" ISRC USHR11233652 PREGAP 00:01:00 INDEX 01 00:00:00FILE "08 - Don't Take My Stuff.wav" WAVE TRACK 08 AUDIO TITLE "Don't Take My Stuff" PERFORMER "Alan Silvestri" ISRC USHR11233653 PREGAP 00:01:00 INDEX 01 00:00:00FILE "09 - Red Ledger.wav" WAVE TRACK 09 AUDIO TITLE "Red Ledger" PERFORMER "Alan Silvestri" ISRC USHR11233654 PREGAP 00:01:00 INDEX 01 00:00:00FILE "10 - Assault.wav" WAVE TRACK 10 AUDIO TITLE "Assault" PERFORMER "Alan Silvestri" ISRC USHR11233655 PREGAP 00:01:03 INDEX 01 00:00:00FILE "11 - They Called It.wav" WAVE TRACK 11 AUDIO TITLE "They Called It" PERFORMER "Alan Silvestri" ISRC USHR11233656 PREGAP 00:00:11 INDEX 01 00:00:00FILE "12 - Performance Issues.wav" WAVE TRACK 12 AUDIO TITLE "Performance Issues" PERFORMER "Alan Silvestri" ISRC USHR11233657 PREGAP 00:01:04 INDEX 01 00:00:00FILE "13 - Seeing, Not Believing.wav" WAVE TRACK 13 AUDIO TITLE "Seeing, Not Believing" PERFORMER "Alan Silvestri" ISRC USHR11233658 PREGAP 00:00:42 INDEX 01 00:00:00FILE "14 - Assemble.wav" WAVE TRACK 14 AUDIO TITLE "Assemble" PERFORMER "Alan Silvestri" ISRC USHR11233659 PREGAP 00:00:53 INDEX 01 00:00:00FILE "15 - I Got A Ride.wav" WAVE TRACK 15 AUDIO TITLE "I Got A Ride" PERFORMER "Alan Silvestri" ISRC USHR11233660 PREGAP 00:01:00 INDEX 01 00:00:00FILE "16 - A Little Help.wav" WAVE TRACK 16 AUDIO TITLE "A Little Help" PERFORMER "Alan Silvestri" ISRC USHR11233661 PREGAP 00:01:00 INDEX 01 00:00:00FILE "17 - One Way Trip.wav" WAVE TRACK 17 AUDIO TITLE "One Way Trip" PERFORMER "Alan Silvestri" ISRC USHR11233662 PREGAP 00:01:00 INDEX 01 00:00:00FILE "18 - A Promise.wav" WAVE TRACK 18 AUDIO TITLE "A Promise" PERFORMER "Alan Silvestri" ISRC USHR11233663 PREGAP 00:02:16 INDEX 01 00:00:00FILE "19 - The Avengers.wav" WAVE TRACK 19 AUDIO TITLE "The Avengers" PERFORMER "Alan Silvestri" ISRC USHR11233664 PREGAP 00:02:00 INDEX 01 00:00:00



Трекер:  [ 12-Июн-2013 16:40 ]

  

Скачать .torrent

Размер .torrent файла 16 KB


Размер: 362 MB
Хэш (hash) релиза: 4aca874eee343918354a6e0a8b341edfc99ce00b

Торренты, похожие на Мстители The Avengers скачать торрент

Форум Название Автор Размер S L Добавлен
Саундтреки к фильмам и мультфильмам (lossless) ·· (Score) Мстители / The Avengers (The Avengers Complete Score) (Alan Silvestri) - 2012, FLAC (tracks), lossless Galfimbul 530201184506 MB 0 0 1472214892

15:34

26-Авг-16

Саундтреки ·· (Score) Мстители / The Avengers (by Alan Silvestri) - 2012, FLAC (tracks), lossless Galfimbul 383349531366 MB 0 0 1356624060

19:01

27-Дек-12

Саундтреки ·· (Score) Мстители / The Avengers (by Alan Silvestri) - 2012, MP3, 320 kbps L 190967364182 MB 0 0 1336226580

17:03

5-Май-12

Саундтреки ·· (Score) Мстители / The Avengers [WEB] (by Alan Silvestri) - 2012, MP3, 128 kbps L 163400168156 MB 0 0 1335232920

05:02

24-Апр-12

Саундтреки к фильмам и мультфильмам (mp3) ·· (Score) Первый Мститель / Captain America: The First Avenger (Captain America: The First Avenger Recording Session) (Alan Silvestri) - 2011, MP3, 320 kbps Galfimbul 251943566240 MB 0 0 1470908147

12:35

11-Авг-16

Саундтреки к фильмам и мультфильмам (mp3) ·· (Score) Первый Мститель / Captain America: The First Avenger (Recording Session) (Alan Silvestri) - 2011, MP3, 320 kbps Galfimbul 251943566240 MB 0 0 1471064861

08:07

13-Авг-16

Саундтреки к фильмам и мультфильмам (lossless) ·· (Score) Первый мститель / Captain America: The First Avenger (by Alan Silvestri) - 2011 [FLAC (tracks+.cue) lossless] Mos 371143179354 MB 2 0 1313071586

17:06

11-Авг-11

Саундтреки к фильмам и мультфильмам (mp3) ·· (Score) Первый мститель / Captain America: The First Avenger (2011) AAC, 263 kbps Galfimbul 157924786151 MB 1 1 1311514967

16:42

24-Июл-11

bot

Топик был перенесен в форум Саундтреки к фильмам и мультфильмам (lossless)

Перенес Galfimbul

Хотите добавить комментарий к записи скачать торрент Мстители The Avengers

!Обратная связь