Скачать через торрент музыку Ноэль Noel бесплатно без регистрации torrent

Если у вас наблюдаются проблемы со скриншотами, переходом по ссылками, скачиванием торрентов - проблемы в блокировщике рекламы AdBlock. #хорошегоДня!


Статистика раздачи
Размер:  121 MB   |    Зарегистрирован:  4 года 6 месяцев   |    .torrent скачан:  23 раза   |   
Раздают:  1  
   
Загрузка...
 
Автор Сообщение

Galfimbul

avatar Galfimbul


Ноэль / Noel
Жанр: Score
Композитор: Alan Menken
Год выпуска диска: 2004
Страна-производитель диска: United States
Аудиокодек: FLAC (*.flac)
Тип рипа: tracks+.cue
Битрейт аудио: lossless
Продолжительность: 27:02
Источник: интернет
Наличие сканов в содержимом раздачи: да
01. Menken, Alan - The Hospital
02. Menken, Alan - Glass Angel
03. Menken, Alan - Jules' Depression
04. Menken, Alan - Winter Light-Montage
05. Menken, Alan - Rose Crashes the Party
06. Menken, Alan - The Pier
07. Menken, Alan - Seeds of Hope
08. Menken, Alan - Turnarounds
09. Menken, Alan - Lux Perpetua
10. Menken, Alan - Winter light-End Titles
X Lossless Decoder version 20120609 (141.0)

XLD extraction logfile from 2012-07-10 10:12:08 -0700

Menken, Alan / Noel (promo)

Used drive : PIONEER DVD-RW DVR-118L (revision 1.02)

Ripper mode : XLD Secure RipperDisable audio cache : OK for the drive with a cache less than 1375KiBMake use of C2 pointers : NORead offset correction : 6Max retry count : 100Gap status : Analyzed, Appended

TOC of the extracted CD Track | Start | Length | Start sector | End sector --------------------------------------------------------- 1 | 00:00:00 | 01:57:00 | 0 | 8774 2 | 01:57:00 | 00:34:65 | 8775 | 11389 3 | 02:31:65 | 01:13:21 | 11390 | 16885 4 | 03:45:11 | 01:46:06 | 16886 | 24841 5 | 05:31:17 | 01:19:27 | 24842 | 30793 6 | 06:50:44 | 03:24:15 | 30794 | 46108 7 | 10:14:59 | 03:11:02 | 46109 | 60435 8 | 13:25:61 | 03:21:74 | 60436 | 75584 9 | 16:47:60 | 05:50:48 | 75585 | 101882 10 | 22:38:33 | 04:24:29 | 101883 | 121711

AccurateRip Summary (DiscID: 00079aec-00413121-6106560a) Track 01 : OK (v1, confidence 1/1) Track 02 : OK (v1, confidence 1/1) Track 03 : OK (v1, confidence 1/1) Track 04 : OK (v1, confidence 1/1) Track 05 : OK (v1, confidence 1/1) Track 06 : OK (v1, confidence 1/1) Track 07 : OK (v1, confidence 1/1) Track 08 : OK (v1, confidence 1/1) Track 09 : OK (v1, confidence 1/1) Track 10 : OK (v1, confidence 1/1) ->All tracks accurately ripped.

All Tracks Album gain : -1.88 dB Peak : 1.000000 Statistics Read error : 0 Jitter error (maybe fixed) : 0 Retry sector count : 0 Damaged sector count : 0

Track 01 Filename : /Volumes/LBPL BACKUP/zSTACE STUFF/MUSIC/UPLOADED OSTS/Noel/N2-AM/01 Menken, Alan - The Hospital.flac Pre-gap length : 00:02:00

Track gain : -1.77 dB Peak : 0.922546 CRC32 hash (test run) : 6BDAE3BA CRC32 hash : 6BDAE3BA CRC32 hash (skip zero) : 1647796C AccurateRip v1 signature : BF855D7A AccurateRip v2 signature : 496715FA ->Accurately ripped (v1, confidence 1/1) Statistics Read error : 0 Jitter error (maybe fixed) : 0 Retry sector count : 0 Damaged sector count : 0

Track 02 Filename : /Volumes/LBPL BACKUP/zSTACE STUFF/MUSIC/UPLOADED OSTS/Noel/N2-AM/02 Menken, Alan - Glass Angel.flac

Track gain : -2.30 dB Peak : 0.924347 CRC32 hash (test run) : E15BD86C CRC32 hash : E15BD86C CRC32 hash (skip zero) : 912C8169 AccurateRip v1 signature : D687304C AccurateRip v2 signature : 77222E10 ->Accurately ripped (v1, confidence 1/1) Statistics Read error : 0 Jitter error (maybe fixed) : 0 Retry sector count : 0 Damaged sector count : 0

Track 03 Filename : /Volumes/LBPL BACKUP/zSTACE STUFF/MUSIC/UPLOADED OSTS/Noel/N2-AM/03 Menken, Alan - Jules' Depression.flac

Track gain : -4.01 dB Peak : 0.922577 CRC32 hash (test run) : 5FC552CF CRC32 hash : 5FC552CF CRC32 hash (skip zero) : 704F13CE AccurateRip v1 signature : B5BCC2DC AccurateRip v2 signature : C0C55AA2 ->Accurately ripped (v1, confidence 1/1) Statistics Read error : 0 Jitter error (maybe fixed) : 0 Retry sector count : 0 Damaged sector count : 0

Track 04 Filename : /Volumes/LBPL BACKUP/zSTACE STUFF/MUSIC/UPLOADED OSTS/Noel/N2-AM/04 Menken, Alan - Winter Light-Montage.flac

Track gain : -5.75 dB Peak : 1.000000 CRC32 hash (test run) : F237EFAD CRC32 hash : F237EFAD CRC32 hash (skip zero) : 17F51083 AccurateRip v1 signature : B4055C9C AccurateRip v2 signature : 394B3585 ->Accurately ripped (v1, confidence 1/1) Statistics Read error : 0 Jitter error (maybe fixed) : 0 Retry sector count : 0 Damaged sector count : 0

Track 05 Filename : /Volumes/LBPL BACKUP/zSTACE STUFF/MUSIC/UPLOADED OSTS/Noel/N2-AM/05 Menken, Alan - Rose Crashes the Party.flac

Track gain : -2.66 dB Peak : 0.922577 CRC32 hash (test run) : 9E03DB32 CRC32 hash : 9E03DB32 CRC32 hash (skip zero) : A22E3F23 AccurateRip v1 signature : 079C654E AccurateRip v2 signature : DF2ED773 ->Accurately ripped (v1, confidence 1/1) Statistics Read error : 0 Jitter error (maybe fixed) : 0 Retry sector count : 0 Damaged sector count : 0

Track 06 Filename : /Volumes/LBPL BACKUP/zSTACE STUFF/MUSIC/UPLOADED OSTS/Noel/N2-AM/06 Menken, Alan - The Pier.flac

Track gain : -1.99 dB Peak : 0.922546 CRC32 hash (test run) : 207AC675 CRC32 hash : 207AC675 CRC32 hash (skip zero) : 3E46D1E5 AccurateRip v1 signature : 274F1B1C AccurateRip v2 signature : 49C64867 ->Accurately ripped (v1, confidence 1/1) Statistics Read error : 0 Jitter error (maybe fixed) : 0 Retry sector count : 0 Damaged sector count : 0

Track 07 Filename : /Volumes/LBPL BACKUP/zSTACE STUFF/MUSIC/UPLOADED OSTS/Noel/N2-AM/07 Menken, Alan - Seeds of Hope.flac

Track gain : 0.92 dB Peak : 0.922546 CRC32 hash (test run) : FBDC4824 CRC32 hash : FBDC4824 CRC32 hash (skip zero) : 16F62D67 AccurateRip v1 signature : BFCB82E8 AccurateRip v2 signature : F41D55DD ->Accurately ripped (v1, confidence 1/1) Statistics Read error : 0 Jitter error (maybe fixed) : 0 Retry sector count : 0 Damaged sector count : 0

Track 08 Filename : /Volumes/LBPL BACKUP/zSTACE STUFF/MUSIC/UPLOADED OSTS/Noel/N2-AM/08 Menken, Alan - Turnarounds.flac

Track gain : -1.51 dB Peak : 0.922577 CRC32 hash (test run) : 8BBE486B CRC32 hash : 8BBE486B CRC32 hash (skip zero) : 15715117 AccurateRip v1 signature : 6C9000CA AccurateRip v2 signature : 1D714F2B ->Accurately ripped (v1, confidence 1/1) Statistics Read error : 0 Jitter error (maybe fixed) : 0 Retry sector count : 0 Damaged sector count : 0

Track 09 Filename : /Volumes/LBPL BACKUP/zSTACE STUFF/MUSIC/UPLOADED OSTS/Noel/N2-AM/09 Menken, Alan - Lux Perpetua.flac

Track gain : -1.47 dB Peak : 0.922577 CRC32 hash (test run) : 8C39921D CRC32 hash : 8C39921D CRC32 hash (skip zero) : ADD633DD AccurateRip v1 signature : 34E13198 AccurateRip v2 signature : C771D37A ->Accurately ripped (v1, confidence 1/1) Statistics Read error : 0 Jitter error (maybe fixed) : 0 Retry sector count : 0 Damaged sector count : 0

Track 10 Filename : /Volumes/LBPL BACKUP/zSTACE STUFF/MUSIC/UPLOADED OSTS/Noel/N2-AM/10 Menken, Alan - Winter light-End Titles.flac

Track gain : -0.73 dB Peak : 0.922577 CRC32 hash (test run) : FCD94862 CRC32 hash : FCD94862 CRC32 hash (skip zero) : 544048D9 AccurateRip v1 signature : 6497CE26 AccurateRip v2 signature : CAC55E1F ->Accurately ripped (v1, confidence 1/1) Statistics Read error : 0 Jitter error (maybe fixed) : 0 Retry sector count : 0 Damaged sector count : 0

No errors occurred

End of status report
TITLE "Noel (promo)"PERFORMER "Menken, Alan"REM GENRE "Soundtrack"REM DISCID 6106560AREM REPLAYGAIN_ALBUM_GAIN -1.88 dBREM REPLAYGAIN_ALBUM_PEAK 1.000000FILE "01 Menken, Alan - The Hospital.flac" WAVE TRACK 01 AUDIO TITLE "The Hospital" SONGWRITER "Menken, Alan" REM REPLAYGAIN_TRACK_GAIN -1.77 dB REM REPLAYGAIN_TRACK_PEAK 0.922546 INDEX 01 00:00:00FILE "02 Menken, Alan - Glass Angel.flac" WAVE TRACK 02 AUDIO TITLE "Glass Angel" SONGWRITER "Menken, Alan" REM REPLAYGAIN_TRACK_GAIN -2.30 dB REM REPLAYGAIN_TRACK_PEAK 0.924347 INDEX 01 00:00:00FILE "03 Menken, Alan - Jules' Depression.flac" WAVE TRACK 03 AUDIO TITLE "Jules' Depression" SONGWRITER "Menken, Alan" REM REPLAYGAIN_TRACK_GAIN -4.01 dB REM REPLAYGAIN_TRACK_PEAK 0.922577 INDEX 01 00:00:00FILE "04 Menken, Alan - Winter Light-Montage.flac" WAVE TRACK 04 AUDIO TITLE "Winter Light-Montage" SONGWRITER "Menken, Alan" REM REPLAYGAIN_TRACK_GAIN -5.75 dB REM REPLAYGAIN_TRACK_PEAK 1.000000 INDEX 01 00:00:00FILE "05 Menken, Alan - Rose Crashes the Party.flac" WAVE TRACK 05 AUDIO TITLE "Rose Crashes the Party" SONGWRITER "Menken, Alan" REM REPLAYGAIN_TRACK_GAIN -2.66 dB REM REPLAYGAIN_TRACK_PEAK 0.922577 INDEX 01 00:00:00FILE "06 Menken, Alan - The Pier.flac" WAVE TRACK 06 AUDIO TITLE "The Pier" SONGWRITER "Menken, Alan" REM REPLAYGAIN_TRACK_GAIN -1.99 dB REM REPLAYGAIN_TRACK_PEAK 0.922546 INDEX 01 00:00:00FILE "07 Menken, Alan - Seeds of Hope.flac" WAVE TRACK 07 AUDIO TITLE "Seeds of Hope" SONGWRITER "Menken, Alan" REM REPLAYGAIN_TRACK_GAIN 0.92 dB REM REPLAYGAIN_TRACK_PEAK 0.922546 INDEX 01 00:00:00FILE "08 Menken, Alan - Turnarounds.flac" WAVE TRACK 08 AUDIO TITLE "Turnarounds" SONGWRITER "Menken, Alan" REM REPLAYGAIN_TRACK_GAIN -1.51 dB REM REPLAYGAIN_TRACK_PEAK 0.922577 INDEX 01 00:00:00FILE "09 Menken, Alan - Lux Perpetua.flac" WAVE TRACK 09 AUDIO TITLE "Lux Perpetua" SONGWRITER "Menken, Alan" REM REPLAYGAIN_TRACK_GAIN -1.47 dB REM REPLAYGAIN_TRACK_PEAK 0.922577 INDEX 01 00:00:00FILE "10 Menken, Alan - Winter light-End Titles.flac" WAVE TRACK 10 AUDIO TITLE "Winter light-End Titles" SONGWRITER "Menken, Alan" REM REPLAYGAIN_TRACK_GAIN -0.73 dB REM REPLAYGAIN_TRACK_PEAK 0.922577 INDEX 01 00:00:00

Не уходите как можно дольше с раздачи. И конечно же оставляйте коменты.
Всегда могу дораздать, пишите в личку. Special gratitude yepsa

Трекер:  [ 12-Июн-2013 16:39 ]

  

Скачать .torrent

Размер .torrent файла 20 KB


Размер: 121 MB
Хэш (hash) релиза: 3bfc00c208c5f5572686d89d9b87fd8d308a4068

Торренты, похожие на Ноэль Noel скачать торрент

Форум Название Автор Размер S L Добавлен
Саундтреки ·· (Score) Роскошная Комедия Ноэля Филдинга / Noel Fielding's Luxury Comedy (Loose Tapestries Presents the Luxury Comedy Tapes) (Sergio Pizzorno, Noel Fielding) - 2012, MP3, 320 kbps Umakiro 8085102877 MB 0 0 1332153780

13:43

19-Мар-12

Зарубежный Rock (video) ·· The Rolling Stones: Live at the Max (Ноэль Аршамбо / Noel Archambault) [1991 г., Рок, BDRip 1080p] Galfimbul 1511925578414.08 GB 0 0 1311921418

09:36

29-Июл-11

bot

Топик был перенесен в форум Саундтреки к фильмам и мультфильмам (lossless)

Перенес Galfimbul

Хотите добавить комментарий к записи скачать торрент Ноэль Noel

!Обратная связь