Скачать через торрент музыку Жизнь, или что-то вроде того Life or Something Like It бесплатно без регистрации torrent

Если у вас наблюдаются проблемы со скриншотами, переходом по ссылками, скачиванием торрентов - проблемы в блокировщике рекламы AdBlock. #хорошегоДня!


Статистика раздачи
Размер:  239 MB   |    Зарегистрирован:  4 года 6 месяцев   |    .torrent скачан:  20 раз   |   
Раздают:  1  
   
Загрузка...
 
Автор Сообщение

Galfimbul

avatar Galfimbul


Жизнь, или что-то вроде того / Life or Something Like It
Жанр: Score
Композитор: David Newman
Год выпуска диска: 2002
Страна-производитель диска: United States
Аудиокодек: FLAC (*.flac)
Тип рипа: tracks+.cue
Битрейт аудио: lossless
Продолжительность: 53:10
Источник: интернет
Наличие сканов в содержимом раздачи: да
01. Newman, David - I Need More Time
02. Newman, David - Main Titles
03. Newman, David - A Dream Opportunity
04. Newman, David - Working Like Professionals
05. Newman, David - Perfection
06. Newman, David - Prophet Jack
07. Newman, David - 19 to 13
08. Newman, David - One Week
09. Newman, David - Dad's Anniversary
10. Newman, David - A Little Earthquake
11. Newman, David - A Different Way
12. Newman, David - What is Important
13. Newman, David - Something's Wrong
14. Newman, David - A New Lanie
15. Newman, David - Officially Dead
16. Newman, David - Third Day With Pete
17. Newman, David - Tommy
18. Newman, David - New Job
19. Newman, David - The Real Lanie
20. Newman, David - Daddy's Girl
21. Newman, David - An Angel Will Fall From Heaven
22. Newman, David - Fifth Day
23. Newman, David - The Big Question
24. Newman, David - Lost Bullet
25. Newman, David - Still Alilve
26. Newman, David - Jack Was Right
27. Newman, David - End Credits
X Lossless Decoder version 20120407 (140.0)

XLD extraction logfile from 2012-06-04 11:30:18 -0700

Newman, David / Life or Something Like it (Promo)

Used drive : PIONEER DVD-RW DVR-118L (revision 1.02)

Ripper mode : XLD Secure RipperDisable audio cache : OK for the drive with a cache less than 1375KiBMake use of C2 pointers : NORead offset correction : 6Max retry count : 100Gap status : Analyzed, Appended (except HTOA)

TOC of the extracted CD Track | Start | Length | Start sector | End sector --------------------------------------------------------- 1 | 00:00:00 | 02:16:41 | 0 | 10240 2 | 02:16:41 | 03:07:73 | 10241 | 24338 3 | 05:24:39 | 02:27:33 | 24339 | 35396 4 | 07:51:72 | 01:50:14 | 35397 | 43660 5 | 09:42:11 | 02:43:61 | 43661 | 55946 6 | 12:25:72 | 00:46:51 | 55947 | 59447 7 | 13:12:48 | 01:47:53 | 59448 | 67525 8 | 15:00:26 | 01:18:46 | 67526 | 73421 9 | 16:18:72 | 02:54:00 | 73422 | 86471 10 | 19:12:72 | 01:00:35 | 86472 | 91006 11 | 20:13:32 | 02:35:11 | 91007 | 102642 12 | 22:48:43 | 01:25:38 | 102643 | 109055 13 | 24:14:06 | 01:18:04 | 109056 | 114909 14 | 25:32:10 | 01:13:48 | 114910 | 120432 15 | 26:45:58 | 01:06:26 | 120433 | 125408 16 | 27:52:09 | 01:28:39 | 125409 | 132047 17 | 29:20:48 | 00:47:06 | 132048 | 135578 18 | 30:07:54 | 04:05:44 | 135579 | 153997 19 | 34:13:23 | 01:09:16 | 153998 | 159188 20 | 35:22:39 | 03:10:54 | 159189 | 173492 21 | 38:33:18 | 00:45:41 | 173493 | 176908 22 | 39:18:59 | 02:32:16 | 176909 | 188324 23 | 41:51:00 | 01:27:71 | 188325 | 194920 24 | 43:18:71 | 01:47:63 | 194921 | 203008 25 | 45:06:59 | 03:22:69 | 203009 | 218227 26 | 48:29:53 | 03:37:16 | 218228 | 234518 27 | 52:06:69 | 01:03:64 | 234519 | 239307

List of alternate offset correction values # | Absolute | Relative | Confidence ------------------------------------------ 1 | 690 | 684 | 1

AccurateRip Summary Track 01 : OK (confidence 1, with different offset) Track 02 : OK (confidence 1, with different offset) Track 03 : OK (confidence 1, with different offset) Track 04 : OK (confidence 1, with different offset) Track 05 : OK (confidence 1, with different offset) Track 06 : OK (confidence 1, with different offset) Track 07 : OK (confidence 1, with different offset) Track 08 : OK (confidence 1, with different offset) Track 09 : OK (confidence 1, with different offset) Track 10 : OK (confidence 1, with different offset) Track 11 : OK (confidence 1, with different offset) Track 12 : OK (confidence 1, with different offset) Track 13 : OK (confidence 1, with different offset) Track 14 : OK (confidence 1, with different offset) Track 15 : OK (confidence 1, with different offset) Track 16 : OK (confidence 1, with different offset) Track 17 : OK (confidence 1, with different offset) Track 18 : OK (confidence 1, with different offset) Track 19 : OK (confidence 1, with different offset) Track 20 : OK (confidence 1, with different offset) Track 21 : OK (confidence 1, with different offset) Track 22 : OK (confidence 1, with different offset) Track 23 : OK (confidence 1, with different offset) Track 24 : OK (confidence 1, with different offset) Track 25 : OK (confidence 1, with different offset) Track 26 : OK (confidence 1, with different offset) Track 27 : OK (confidence 1, with different offset) ->All tracks accurately ripped.

All Tracks Album gain : 0.77 dB Peak : 1.000000 Statistics Read error : 0 Jitter error (maybe fixed) : 0 Retry sector count : 0 Damaged sector count : 0

Track 01 Filename : /Users/cityoflongbeach/Desktop/CURRENT PROJECTS/UPLOAD/Life or Something Like it/LOSLI-DN/01 Newman, David - I Need More Time.flac Pre-gap length : 00:02:00

Track gain : 3.64 dB Peak : 0.648132 CRC32 hash (test run) : 849C4486 CRC32 hash : 849C4486 CRC32 hash (skip zero) : F2843244 AccurateRip signature : 667933E1 ->Accurately ripped! (confidence 1) (matched with the different offset correction value; calculated using an additional offset of 684; the signature after correction is: DBCB9F3F) Statistics Read error : 0 Jitter error (maybe fixed) : 0 Retry sector count : 0 Damaged sector count : 0

Track 02 Filename : /Users/cityoflongbeach/Desktop/CURRENT PROJECTS/UPLOAD/Life or Something Like it/LOSLI-DN/02 Newman, David - Main Titles.flac

Track gain : 3.75 dB Peak : 0.786530 CRC32 hash (test run) : 44B1D553 CRC32 hash : 44B1D553 CRC32 hash (skip zero) : 3E5AF9F8 AccurateRip signature : 623386E4 ->Accurately ripped! (confidence 1) (matched with the different offset correction value; calculated using an additional offset of 684; the signature after correction is: 4667E32E) Statistics Read error : 0 Jitter error (maybe fixed) : 0 Retry sector count : 0 Damaged sector count : 0

Track 03 Filename : /Users/cityoflongbeach/Desktop/CURRENT PROJECTS/UPLOAD/Life or Something Like it/LOSLI-DN/03 Newman, David - A Dream Opportunity.flac

Track gain : -0.47 dB Peak : 0.977051 CRC32 hash (test run) : 0FF12F44 CRC32 hash : 0FF12F44 CRC32 hash (skip zero) : 18856086 AccurateRip signature : 299F5C8F ->Accurately ripped! (confidence 1) (matched with the different offset correction value; calculated using an additional offset of 684; the signature after correction is: 5B744CC9) Statistics Read error : 0 Jitter error (maybe fixed) : 0 Retry sector count : 0 Damaged sector count : 0

Track 04 Filename : /Users/cityoflongbeach/Desktop/CURRENT PROJECTS/UPLOAD/Life or Something Like it/LOSLI-DN/04 Newman, David - Working Like Professionals.flac

Track gain : 8.59 dB Peak : 0.376648 CRC32 hash (test run) : 483AC952 CRC32 hash : 483AC952 CRC32 hash (skip zero) : E21561A7 AccurateRip signature : 7154CD21 ->Accurately ripped! (confidence 1) (matched with the different offset correction value; calculated using an additional offset of 684; the signature after correction is: A20C5287) Statistics Read error : 0 Jitter error (maybe fixed) : 0 Retry sector count : 0 Damaged sector count : 0

Track 05 Filename : /Users/cityoflongbeach/Desktop/CURRENT PROJECTS/UPLOAD/Life or Something Like it/LOSLI-DN/05 Newman, David - Perfection.flac

Track gain : 2.02 dB Peak : 0.962311 CRC32 hash (test run) : F6473CB1 CRC32 hash : F6473CB1 CRC32 hash (skip zero) : 1AF29172 AccurateRip signature : 0A79307F ->Accurately ripped! (confidence 1) (matched with the different offset correction value; calculated using an additional offset of 684; the signature after correction is: 4033FA86) Statistics Read error : 0 Jitter error (maybe fixed) : 0 Retry sector count : 0 Damaged sector count : 0

Track 06 Filename : /Users/cityoflongbeach/Desktop/CURRENT PROJECTS/UPLOAD/Life or Something Like it/LOSLI-DN/06 Newman, David - Prophet Jack.flac

Track gain : -0.94 dB Peak : 0.919830 CRC32 hash (test run) : AE53E4D0 CRC32 hash : AE53E4D0 CRC32 hash (skip zero) : BE9962D4 AccurateRip signature : 306B44DE ->Accurately ripped! (confidence 1) (matched with the different offset correction value; calculated using an additional offset of 684; the signature after correction is: 30C7E4C6) Statistics Read error : 0 Jitter error (maybe fixed) : 0 Retry sector count : 0 Damaged sector count : 0

Track 07 Filename : /Users/cityoflongbeach/Desktop/CURRENT PROJECTS/UPLOAD/Life or Something Like it/LOSLI-DN/07 Newman, David - 19 to 13.flac

Track gain : 6.32 dB Peak : 0.374664 CRC32 hash (test run) : 43C809A9 CRC32 hash : 43C809A9 CRC32 hash (skip zero) : 81BF2F44 AccurateRip signature : E9033D0F ->Accurately ripped! (confidence 1) (matched with the different offset correction value; calculated using an additional offset of 684; the signature after correction is: D808AAB1) Statistics Read error : 0 Jitter error (maybe fixed) : 0 Retry sector count : 0 Damaged sector count : 0

Track 08 Filename : /Users/cityoflongbeach/Desktop/CURRENT PROJECTS/UPLOAD/Life or Something Like it/LOSLI-DN/08 Newman, David - One Week.flac

Track gain : 0.24 dB Peak : 0.799713 CRC32 hash (test run) : B71EB9F9 CRC32 hash : B71EB9F9 CRC32 hash (skip zero) : 02DB30E5 AccurateRip signature : FC91F4F2 ->Accurately ripped! (confidence 1) (matched with the different offset correction value; calculated using an additional offset of 684; the signature after correction is: C3D72B80) Statistics Read error : 0 Jitter error (maybe fixed) : 0 Retry sector count : 0 Damaged sector count : 0

Track 09 Filename : /Users/cityoflongbeach/Desktop/CURRENT PROJECTS/UPLOAD/Life or Something Like it/LOSLI-DN/09 Newman, David - Dad's Anniversary.flac

Track gain : 4.57 dB Peak : 0.629272 CRC32 hash (test run) : 306698D6 CRC32 hash : 306698D6 CRC32 hash (skip zero) : B65EE4EE AccurateRip signature : 729D5BD1 ->Accurately ripped! (confidence 1) (matched with the different offset correction value; calculated using an additional offset of 684; the signature after correction is: 2E7A9B5D) Statistics Read error : 0 Jitter error (maybe fixed) : 0 Retry sector count : 0 Damaged sector count : 0

Track 10 Filename : /Users/cityoflongbeach/Desktop/CURRENT PROJECTS/UPLOAD/Life or Something Like it/LOSLI-DN/10 Newman, David - A Little Earthquake.flac

Track gain : 4.32 dB Peak : 0.586853 CRC32 hash (test run) : A48A97F2 CRC32 hash : A48A97F2 CRC32 hash (skip zero) : E1E66B46 AccurateRip signature : E3B53C7B ->Accurately ripped! (confidence 1) (matched with the different offset correction value; calculated using an additional offset of 684; the signature after correction is: 888FAE1D) Statistics Read error : 0 Jitter error (maybe fixed) : 0 Retry sector count : 0 Damaged sector count : 0

Track 11 Filename : /Users/cityoflongbeach/Desktop/CURRENT PROJECTS/UPLOAD/Life or Something Like it/LOSLI-DN/11 Newman, David - A Different Way.flac

Track gain : -0.37 dB Peak : 1.000000 CRC32 hash (test run) : 87EAE56B CRC32 hash : 87EAE56B CRC32 hash (skip zero) : 0EAEE0BA AccurateRip signature : F60575E0 ->Accurately ripped! (confidence 1) (matched with the different offset correction value; calculated using an additional offset of 684; the signature after correction is: 81861179) Statistics Read error : 0 Jitter error (maybe fixed) : 0 Retry sector count : 0 Damaged sector count : 0

Track 12 Filename : /Users/cityoflongbeach/Desktop/CURRENT PROJECTS/UPLOAD/Life or Something Like it/LOSLI-DN/12 Newman, David - What is Important.flac

Track gain : -1.21 dB Peak : 0.877747 CRC32 hash (test run) : C1FF0FFF CRC32 hash : C1FF0FFF CRC32 hash (skip zero) : 63CCB2F6 AccurateRip signature : DFB747B7 ->Accurately ripped! (confidence 1) (matched with the different offset correction value; calculated using an additional offset of 684; the signature after correction is: 554352E3) Statistics Read error : 0 Jitter error (maybe fixed) : 0 Retry sector count : 0 Damaged sector count : 0

Track 13 Filename : /Users/cityoflongbeach/Desktop/CURRENT PROJECTS/UPLOAD/Life or Something Like it/LOSLI-DN/13 Newman, David - Something's Wrong.flac

Track gain : 1.27 dB Peak : 0.921936 CRC32 hash (test run) : 5CF77D08 CRC32 hash : 5CF77D08 CRC32 hash (skip zero) : D63615F6 AccurateRip signature : FE3F7CF0 ->Accurately ripped! (confidence 1) (matched with the different offset correction value; calculated using an additional offset of 684; the signature after correction is: 7C43FE4B) Statistics Read error : 0 Jitter error (maybe fixed) : 0 Retry sector count : 0 Damaged sector count : 0

Track 14 Filename : /Users/cityoflongbeach/Desktop/CURRENT PROJECTS/UPLOAD/Life or Something Like it/LOSLI-DN/14 Newman, David - A New Lanie.flac

Track gain : 5.26 dB Peak : 0.395172 CRC32 hash (test run) : 196BBC94 CRC32 hash : 196BBC94 CRC32 hash (skip zero) : 047EBFA6 AccurateRip signature : DF7E1BE8 ->Accurately ripped! (confidence 1) (matched with the different offset correction value; calculated using an additional offset of 684; the signature after correction is: DE6C81A4) Statistics Read error : 0 Jitter error (maybe fixed) : 0 Retry sector count : 0 Damaged sector count : 0

Track 15 Filename : /Users/cityoflongbeach/Desktop/CURRENT PROJECTS/UPLOAD/Life or Something Like it/LOSLI-DN/15 Newman, David - Officially Dead.flac

Track gain : 3.78 dB Peak : 0.449036 CRC32 hash (test run) : 7A5D24FC CRC32 hash : 7A5D24FC CRC32 hash (skip zero) : A34D616E AccurateRip signature : 145F95B8 ->Accurately ripped! (confidence 1) (matched with the different offset correction value; calculated using an additional offset of 684; the signature after correction is: C0013665) Statistics Read error : 0 Jitter error (maybe fixed) : 0 Retry sector count : 0 Damaged sector count : 0

Track 16 Filename : /Users/cityoflongbeach/Desktop/CURRENT PROJECTS/UPLOAD/Life or Something Like it/LOSLI-DN/16 Newman, David - Third Day With Pete.flac

Track gain : 5.70 dB Peak : 0.352234 CRC32 hash (test run) : E1C6A749 CRC32 hash : E1C6A749 CRC32 hash (skip zero) : 4AFD0EC9 AccurateRip signature : 9237E89E ->Accurately ripped! (confidence 1) (matched with the different offset correction value; calculated using an additional offset of 684; the signature after correction is: B1FDA8B5) Statistics Read error : 0 Jitter error (maybe fixed) : 0 Retry sector count : 0 Damaged sector count : 0

Track 17 Filename : /Users/cityoflongbeach/Desktop/CURRENT PROJECTS/UPLOAD/Life or Something Like it/LOSLI-DN/17 Newman, David - Tommy.flac

Track gain : 3.53 dB Peak : 0.446899 CRC32 hash (test run) : 4D84BDFF CRC32 hash : 4D84BDFF CRC32 hash (skip zero) : 647881E6 AccurateRip signature : ED952E56 ->Accurately ripped! (confidence 1) (matched with the different offset correction value; calculated using an additional offset of 684; the signature after correction is: BC7E04DC) Statistics Read error : 0 Jitter error (maybe fixed) : 0 Retry sector count : 0 Damaged sector count : 0

Track 18 Filename : /Users/cityoflongbeach/Desktop/CURRENT PROJECTS/UPLOAD/Life or Something Like it/LOSLI-DN/18 Newman, David - New Job.flac

Track gain : -0.30 dB Peak : 0.944397 CRC32 hash (test run) : 4C2A79D4 CRC32 hash : 4C2A79D4 CRC32 hash (skip zero) : A1E0B624 AccurateRip signature : 19DD4D37 ->Accurately ripped! (confidence 1) (matched with the different offset correction value; calculated using an additional offset of 684; the signature after correction is: 6E5711C9) Statistics Read error : 0 Jitter error (maybe fixed) : 0 Retry sector count : 0 Damaged sector count : 0

Track 19 Filename : /Users/cityoflongbeach/Desktop/CURRENT PROJECTS/UPLOAD/Life or Something Like it/LOSLI-DN/19 Newman, David - The Real Lanie.flac

Track gain : 0.65 dB Peak : 0.541473 CRC32 hash (test run) : C387CC7F CRC32 hash : C387CC7F CRC32 hash (skip zero) : E2A41ADB AccurateRip signature : 114D9CD1 ->Accurately ripped! (confidence 1) (matched with the different offset correction value; calculated using an additional offset of 684; the signature after correction is: E36370A2) Statistics Read error : 0 Jitter error (maybe fixed) : 0 Retry sector count : 0 Damaged sector count : 0

Track 20 Filename : /Users/cityoflongbeach/Desktop/CURRENT PROJECTS/UPLOAD/Life or Something Like it/LOSLI-DN/20 Newman, David - Daddy's Girl.flac

Track gain : 0.55 dB Peak : 0.999939 CRC32 hash (test run) : 1D9C4822 CRC32 hash : 1D9C4822 CRC32 hash (skip zero) : 7DE11DB9 AccurateRip signature : 5BA6A0B4 ->Accurately ripped! (confidence 1) (matched with the different offset correction value; calculated using an additional offset of 684; the signature after correction is: 82760C1F) Statistics Read error : 0 Jitter error (maybe fixed) : 0 Retry sector count : 0 Damaged sector count : 0

Track 21 Filename : /Users/cityoflongbeach/Desktop/CURRENT PROJECTS/UPLOAD/Life or Something Like it/LOSLI-DN/21 Newman, David - An Angel Will Fall From Heaven.flac

Track gain : -0.27 dB Peak : 0.977264 CRC32 hash (test run) : E54CB33B CRC32 hash : E54CB33B CRC32 hash (skip zero) : BCFBEE5C AccurateRip signature : FDE26B5D ->Accurately ripped! (confidence 1) (matched with the different offset correction value; calculated using an additional offset of 684; the signature after correction is: 57DD2EAD) Statistics Read error : 0 Jitter error (maybe fixed) : 0 Retry sector count : 0 Damaged sector count : 0

Track 22 Filename : /Users/cityoflongbeach/Desktop/CURRENT PROJECTS/UPLOAD/Life or Something Like it/LOSLI-DN/22 Newman, David - Fifth Day.flac

Track gain : -0.83 dB Peak : 0.942139 CRC32 hash (test run) : 1C4C146A CRC32 hash : 1C4C146A CRC32 hash (skip zero) : FA8A013B AccurateRip signature : 6D638C4F ->Accurately ripped! (confidence 1) (matched with the different offset correction value; calculated using an additional offset of 684; the signature after correction is: BB2AAE60) Statistics Read error : 0 Jitter error (maybe fixed) : 0 Retry sector count : 0 Damaged sector count : 0

Track 23 Filename : /Users/cityoflongbeach/Desktop/CURRENT PROJECTS/UPLOAD/Life or Something Like it/LOSLI-DN/23 Newman, David - The Big Question.flac

Track gain : 0.00 dB Peak : 0.651642 CRC32 hash (test run) : 1C218ABE CRC32 hash : 1C218ABE CRC32 hash (skip zero) : CC88340B AccurateRip signature : 16484113 ->Accurately ripped! (confidence 1) (matched with the different offset correction value; calculated using an additional offset of 684; the signature after correction is: 9AEBE0F2) Statistics Read error : 0 Jitter error (maybe fixed) : 0 Retry sector count : 0 Damaged sector count : 0

Track 24 Filename : /Users/cityoflongbeach/Desktop/CURRENT PROJECTS/UPLOAD/Life or Something Like it/LOSLI-DN/24 Newman, David - Lost Bullet.flac

Track gain : -0.23 dB Peak : 0.996063 CRC32 hash (test run) : 18122083 CRC32 hash : 18122083 CRC32 hash (skip zero) : 33F1EEC8 AccurateRip signature : F9CF03F5 ->Accurately ripped! (confidence 1) (matched with the different offset correction value; calculated using an additional offset of 684; the signature after correction is: 5380A28A) Statistics Read error : 0 Jitter error (maybe fixed) : 0 Retry sector count : 0 Damaged sector count : 0

Track 25 Filename : /Users/cityoflongbeach/Desktop/CURRENT PROJECTS/UPLOAD/Life or Something Like it/LOSLI-DN/25 Newman, David - Still Alilve.flac

Track gain : -0.35 dB Peak : 0.824707 CRC32 hash (test run) : F8832A02 CRC32 hash : F8832A02 CRC32 hash (skip zero) : 690CF2C3 AccurateRip signature : E06A1CEE ->Accurately ripped! (confidence 1) (matched with the different offset correction value; calculated using an additional offset of 684; the signature after correction is: 7923BA74) Statistics Read error : 0 Jitter error (maybe fixed) : 0 Retry sector count : 0 Damaged sector count : 0

Track 26 Filename : /Users/cityoflongbeach/Desktop/CURRENT PROJECTS/UPLOAD/Life or Something Like it/LOSLI-DN/26 Newman, David - Jack Was Right.flac

Track gain : 2.49 dB Peak : 0.994598 CRC32 hash (test run) : E1A4A845 CRC32 hash : E1A4A845 CRC32 hash (skip zero) : 40D11758 AccurateRip signature : F3C196D3 ->Accurately ripped! (confidence 1) (matched with the different offset correction value; calculated using an additional offset of 684; the signature after correction is: B7F0A48E) Statistics Read error : 0 Jitter error (maybe fixed) : 0 Retry sector count : 0 Damaged sector count : 0

Track 27 Filename : /Users/cityoflongbeach/Desktop/CURRENT PROJECTS/UPLOAD/Life or Something Like it/LOSLI-DN/27 Newman, David - End Credits.flac

Track gain : 2.62 dB Peak : 0.715149 CRC32 hash (test run) : 8900523E CRC32 hash : 8900523E CRC32 hash (skip zero) : 481CA85B AccurateRip signature : 90A373AE ->Accurately ripped! (confidence 1) (matched with the different offset correction value; calculated using an additional offset of 684; the signature after correction is: 6EC6E71B) Statistics Read error : 0 Jitter error (maybe fixed) : 0 Retry sector count : 0 Damaged sector count : 0

No errors occurred

End of status report
TITLE "Life or Something Like it (Promo)"PERFORMER "Newman, David"REM GENRE "Soundtrack"REM DISCID 630C761BREM REPLAYGAIN_ALBUM_GAIN 0.77 dBREM REPLAYGAIN_ALBUM_PEAK 1.000000FILE "01 Newman, David - I Need More Time.flac" WAVE TRACK 01 AUDIO TITLE "I Need More Time" SONGWRITER "Newman, David" REM REPLAYGAIN_TRACK_GAIN 3.64 dB REM REPLAYGAIN_TRACK_PEAK 0.648132 INDEX 01 00:00:00FILE "02 Newman, David - Main Titles.flac" WAVE TRACK 02 AUDIO TITLE "Main Titles" SONGWRITER "Newman, David" REM REPLAYGAIN_TRACK_GAIN 3.75 dB REM REPLAYGAIN_TRACK_PEAK 0.786530 INDEX 01 00:00:00FILE "03 Newman, David - A Dream Opportunity.flac" WAVE TRACK 03 AUDIO TITLE "A Dream Opportunity" SONGWRITER "Newman, David" REM REPLAYGAIN_TRACK_GAIN -0.47 dB REM REPLAYGAIN_TRACK_PEAK 0.977051 INDEX 01 00:00:00FILE "04 Newman, David - Working Like Professionals.flac" WAVE TRACK 04 AUDIO TITLE "Working Like Professionals" SONGWRITER "Newman, David" REM REPLAYGAIN_TRACK_GAIN 8.59 dB REM REPLAYGAIN_TRACK_PEAK 0.376648 INDEX 01 00:00:00FILE "05 Newman, David - Perfection.flac" WAVE TRACK 05 AUDIO TITLE "Perfection" SONGWRITER "Newman, David" REM REPLAYGAIN_TRACK_GAIN 2.02 dB REM REPLAYGAIN_TRACK_PEAK 0.962311 INDEX 01 00:00:00FILE "06 Newman, David - Prophet Jack.flac" WAVE TRACK 06 AUDIO TITLE "Prophet Jack" SONGWRITER "Newman, David" REM REPLAYGAIN_TRACK_GAIN -0.94 dB REM REPLAYGAIN_TRACK_PEAK 0.919830 INDEX 01 00:00:00FILE "07 Newman, David - 19 to 13.flac" WAVE TRACK 07 AUDIO TITLE "19 to 13" SONGWRITER "Newman, David" REM REPLAYGAIN_TRACK_GAIN 6.32 dB REM REPLAYGAIN_TRACK_PEAK 0.374664 INDEX 01 00:00:00FILE "08 Newman, David - One Week.flac" WAVE TRACK 08 AUDIO TITLE "One Week" SONGWRITER "Newman, David" REM REPLAYGAIN_TRACK_GAIN 0.24 dB REM REPLAYGAIN_TRACK_PEAK 0.799713 INDEX 01 00:00:00FILE "09 Newman, David - Dad's Anniversary.flac" WAVE TRACK 09 AUDIO TITLE "Dad's Anniversary" SONGWRITER "Newman, David" REM REPLAYGAIN_TRACK_GAIN 4.57 dB REM REPLAYGAIN_TRACK_PEAK 0.629272 INDEX 01 00:00:00FILE "10 Newman, David - A Little Earthquake.flac" WAVE TRACK 10 AUDIO TITLE "A Little Earthquake" SONGWRITER "Newman, David" REM REPLAYGAIN_TRACK_GAIN 4.32 dB REM REPLAYGAIN_TRACK_PEAK 0.586853 INDEX 01 00:00:00FILE "11 Newman, David - A Different Way.flac" WAVE TRACK 11 AUDIO TITLE "A Different Way" SONGWRITER "Newman, David" REM REPLAYGAIN_TRACK_GAIN -0.37 dB REM REPLAYGAIN_TRACK_PEAK 1.000000 INDEX 01 00:00:00FILE "12 Newman, David - What is Important.flac" WAVE TRACK 12 AUDIO TITLE "What is Important" SONGWRITER "Newman, David" REM REPLAYGAIN_TRACK_GAIN -1.21 dB REM REPLAYGAIN_TRACK_PEAK 0.877747 INDEX 01 00:00:00FILE "13 Newman, David - Something's Wrong.flac" WAVE TRACK 13 AUDIO TITLE "Something's Wrong" SONGWRITER "Newman, David" REM REPLAYGAIN_TRACK_GAIN 1.27 dB REM REPLAYGAIN_TRACK_PEAK 0.921936 INDEX 01 00:00:00FILE "14 Newman, David - A New Lanie.flac" WAVE TRACK 14 AUDIO TITLE "A New Lanie" SONGWRITER "Newman, David" REM REPLAYGAIN_TRACK_GAIN 5.26 dB REM REPLAYGAIN_TRACK_PEAK 0.395172 INDEX 01 00:00:00FILE "15 Newman, David - Officially Dead.flac" WAVE TRACK 15 AUDIO TITLE "Officially Dead" SONGWRITER "Newman, David" REM REPLAYGAIN_TRACK_GAIN 3.78 dB REM REPLAYGAIN_TRACK_PEAK 0.449036 INDEX 01 00:00:00FILE "16 Newman, David - Third Day With Pete.flac" WAVE TRACK 16 AUDIO TITLE "Third Day With Pete" SONGWRITER "Newman, David" REM REPLAYGAIN_TRACK_GAIN 5.70 dB REM REPLAYGAIN_TRACK_PEAK 0.352234 INDEX 01 00:00:00FILE "17 Newman, David - Tommy.flac" WAVE TRACK 17 AUDIO TITLE "Tommy" SONGWRITER "Newman, David" REM REPLAYGAIN_TRACK_GAIN 3.53 dB REM REPLAYGAIN_TRACK_PEAK 0.446899 INDEX 01 00:00:00FILE "18 Newman, David - New Job.flac" WAVE TRACK 18 AUDIO TITLE "New Job" SONGWRITER "Newman, David" REM REPLAYGAIN_TRACK_GAIN -0.30 dB REM REPLAYGAIN_TRACK_PEAK 0.944397 INDEX 01 00:00:00FILE "19 Newman, David - The Real Lanie.flac" WAVE TRACK 19 AUDIO TITLE "The Real Lanie" SONGWRITER "Newman, David" REM REPLAYGAIN_TRACK_GAIN 0.65 dB REM REPLAYGAIN_TRACK_PEAK 0.541473 INDEX 01 00:00:00FILE "20 Newman, David - Daddy's Girl.flac" WAVE TRACK 20 AUDIO TITLE "Daddy's Girl" SONGWRITER "Newman, David" REM REPLAYGAIN_TRACK_GAIN 0.55 dB REM REPLAYGAIN_TRACK_PEAK 0.999939 INDEX 01 00:00:00FILE "21 Newman, David - An Angel Will Fall From Heaven.flac" WAVE TRACK 21 AUDIO TITLE "An Angel Will Fall From Heaven" SONGWRITER "Newman, David" REM REPLAYGAIN_TRACK_GAIN -0.27 dB REM REPLAYGAIN_TRACK_PEAK 0.977264 INDEX 01 00:00:00FILE "22 Newman, David - Fifth Day.flac" WAVE TRACK 22 AUDIO TITLE "Fifth Day" SONGWRITER "Newman, David" REM REPLAYGAIN_TRACK_GAIN -0.83 dB REM REPLAYGAIN_TRACK_PEAK 0.942139 INDEX 01 00:00:00FILE "23 Newman, David - The Big Question.flac" WAVE TRACK 23 AUDIO TITLE "The Big Question" SONGWRITER "Newman, David" REM REPLAYGAIN_TRACK_GAIN 0.00 dB REM REPLAYGAIN_TRACK_PEAK 0.651642 INDEX 01 00:00:00FILE "24 Newman, David - Lost Bullet.flac" WAVE TRACK 24 AUDIO TITLE "Lost Bullet" SONGWRITER "Newman, David" REM REPLAYGAIN_TRACK_GAIN -0.23 dB REM REPLAYGAIN_TRACK_PEAK 0.996063 INDEX 01 00:00:00FILE "25 Newman, David - Still Alilve.flac" WAVE TRACK 25 AUDIO TITLE "Still Alilve" SONGWRITER "Newman, David" REM REPLAYGAIN_TRACK_GAIN -0.35 dB REM REPLAYGAIN_TRACK_PEAK 0.824707 INDEX 01 00:00:00FILE "26 Newman, David - Jack Was Right.flac" WAVE TRACK 26 AUDIO TITLE "Jack Was Right" SONGWRITER "Newman, David" REM REPLAYGAIN_TRACK_GAIN 2.49 dB REM REPLAYGAIN_TRACK_PEAK 0.994598 INDEX 01 00:00:00FILE "27 Newman, David - End Credits.flac" WAVE TRACK 27 AUDIO TITLE "End Credits" SONGWRITER "Newman, David" REM REPLAYGAIN_TRACK_GAIN 2.62 dB REM REPLAYGAIN_TRACK_PEAK 0.715149 INDEX 01 00:00:00

Не уходите как можно дольше с раздачи. И конечно же оставляйте коменты.
Всегда могу дораздать, пишите в личку. Special gratitude yepsa

Трекер:  [ 12-Июн-2013 16:39 ]

  

Скачать .torrent

Размер .torrent файла 21 KB


Размер: 239 MB
Хэш (hash) релиза: 3ea53b4827c251573f8201e7e11728228822ea1b

Торренты, похожие на Жизнь, или что-то вроде того Life or Something Like It скачать торрент

Форум Название Автор Размер S L Добавлен
Саундтреки ·· (Score) Жизнь, или что-то вроде того / Life or Something Like It [Unreleased promo] (by David Newman) - 2002, MP3 (tracks), 320 kbps Galfimbul 130442782124 MB 0 0 1342708980

17:43

19-Июл-12

bot

Топик был перенесен в форум Саундтреки к фильмам и мультфильмам (lossless)

Перенес Galfimbul

Хотите добавить комментарий к записи скачать торрент Жизнь, или что-то вроде того Life or Something Like It

!Обратная связь