Скачать через торрент музыку Дорога на Салину La route de Salina бесплатно без регистрации torrent

Если у вас наблюдаются проблемы со скриншотами, переходом по ссылками, скачиванием торрентов - проблемы в блокировщике рекламы AdBlock. #хорошегоДня!


Статистика раздачи
Размер:  206 MB   |    Зарегистрирован:  4 года 6 месяцев   |    .torrent скачан:  30 раз   |   
Раздают:  1  
   
Загрузка...
 
Автор Сообщение

Galfimbul

avatar Galfimbul


Дорога на Салину / La route de Salina / Road to Salina

Жанр: Soundtrack / Score
Страна-производитель диска: Sweden
Год издания: 2010
Издатель (лейбл): Flawed Gems
Номер по каталогу: GEM 42
Страна: Multinational
Аудиокодек: FLAC (*.flac)
Тип рипа: image+.cue
Битрейт аудио: lossless
Продолжительность: 00:33:08
Источник (релизер): antonyart
Наличие сканов в содержимом раздачи:
Треклист:
01. The Girl From Salina (vocal) 02:35
02. Sunshine On You 01:15
03. Mississipi 03:01
04. If All The Citys Watching 01:01
05. Serenity 01:34
06. The Girl From Salina (instrumental) 02:14
07. Cold Water 02:37
08. That's Nothing 01:09
09. The Road To Salina 02:57
10. Sunny Road To Salina 04:21
11. The Chase 01:03
12. The Girl From Salina (orchestral) 02:36
13. Jacqueline 02:26
14. Green Dream 02:12
15. Red Mountain 02:03
Tracks 2-6, 8, 9, 11, 13-15 performed by Clinic
Tracks 1, 10 performed by Christophe
Tracks 7, 12 performed by Bernard Gerard Orchestra
Exact Audio Copy V1.0 beta 3 from 29. August 2011

EAC extraction logfile from 17. November 2012, 18:00

Clinic / Christophe / Bernard Gerard Orchestra / La route de Salina - OST

Used drive : HL-DT-STDVDRAM GT34N Adapter: 0 ID: 2

Read mode : SecureUtilize accurate stream : YesDefeat audio cache : YesMake use of C2 pointers : No

Read offset correction : 103Overread into Lead-In and Lead-Out : NoFill up missing offset samples with silence : YesDelete leading and trailing silent blocks : NoNull samples used in CRC calculations : YesUsed interface : Native Win32 interface for Win NT & 2000

Used output format : User Defined EncoderSelected bitrate : 896 kBit/sQuality : HighAdd ID3 tag : YesCommand line compressor : C:\Program Files (x86)\Exact Audio Copy\FLAC\FLAC.EXEAdditional command line options : -6 -V -T "ARTIST=%artist%" -T "TITLE=%title%" -T "ALBUM=%albumtitle%" -T "DATE=%year%" -T "TRACKNUMBER=%tracknr%" -T "GENRE=%genre%" -T "COMMENT=%comment%" -T "BAND=%albuminterpret%" -T "ALBUMARTIST=%albuminterpret%" -T "COMPOSER=%composer%" %haslyrics%--tag-from-file=LYRICS="%lyricsfile%"%haslyrics% -T "DISCNUMBER=%cdnumber%" -T "TOTALDISCS=%totalcds%" -T "TOTALTRACKS=%numtracks%" %hascover%--picture="%coverfile%"%hascover% %source% -o %dest%

TOC of the extracted CD

Track | Start | Length | Start sector | End sector --------------------------------------------------------- 1 | 0:00.00 | 2:34.63 | 0 | 11612 2 | 2:34.63 | 1:14.61 | 11613 | 17223 3 | 3:49.49 | 3:02.09 | 17224 | 30882 4 | 6:51.58 | 1:01.35 | 30883 | 35492 5 | 7:53.18 | 1:34.20 | 35493 | 42562 6 | 9:27.38 | 2:13.48 | 42563 | 52585 7 | 11:41.11 | 2:37.31 | 52586 | 64391 8 | 14:18.42 | 1:09.05 | 64392 | 69571 9 | 15:27.47 | 2:57.25 | 69572 | 82871 10 | 18:24.72 | 4:20.74 | 82872 | 102445 11 | 22:45.71 | 1:03.37 | 102446 | 107207 12 | 23:49.33 | 2:36.24 | 107208 | 118931 13 | 26:25.57 | 2:26.17 | 118932 | 129898 14 | 28:51.74 | 2:11.49 | 129899 | 139772 15 | 31:03.48 | 2:03.15 | 139773 | 149012

Range status and errors

Selected range

Filename D:\FLAC\Clinic - Christophe - Bernard Gerard Orchestra -70- La route de Salina - OST\Clinic , Christophe , Bernard Gerard Orchestra - La route de Salina - OST.wav

Peak level 99.1 % Extraction speed 1.8 X Range quality 100.0 % Test CRC 0471F8A2 Copy CRC 0471F8A2 Copy OK

No errors occurred

AccurateRip summary

Track 1 not present in databaseTrack 2 not present in databaseTrack 3 not present in databaseTrack 4 not present in databaseTrack 5 not present in databaseTrack 6 not present in databaseTrack 7 not present in databaseTrack 8 not present in databaseTrack 9 not present in databaseTrack 10 not present in databaseTrack 11 not present in databaseTrack 12 not present in databaseTrack 13 not present in databaseTrack 14 not present in databaseTrack 15 not present in database

None of the tracks are present in the AccurateRip database

End of status report

==== Log checksum F0A984A05C67BE030D29737D023E44511E44A949866FCF3C8BB464470F39B63C ====
REM GENRE "Psychedelic Rock/Soundtrack/Multinational"REM DATE 1970 (2010)REM DISCID C507C20FREM COMMENT "ExactAudioCopy v1.0b3"PERFORMER "Clinic / Christophe / Bernard Gerard Orchestra"TITLE "La route de Salina - OST"FILE "Clinic , Christophe , Bernard Gerard Orchestra - La route de Salina - OST.flac" WAVE TRACK 01 AUDIO TITLE "The Girl From Salina (vocal)" PERFORMER "Clinic / Christophe / Bernard Gerard Orchestra" INDEX 01 00:00:00 TRACK 02 AUDIO TITLE "Sunshine On You" PERFORMER "Clinic / Christophe / Bernard Gerard Orchestra" INDEX 01 02:34:63 TRACK 03 AUDIO TITLE "Mississipi" PERFORMER "Clinic / Christophe / Bernard Gerard Orchestra" INDEX 01 03:49:49 TRACK 04 AUDIO TITLE "If All The Citys Watching" PERFORMER "Clinic / Christophe / Bernard Gerard Orchestra" INDEX 01 06:51:58 TRACK 05 AUDIO TITLE "Serenity" PERFORMER "Clinic / Christophe / Bernard Gerard Orchestra" INDEX 01 07:53:18 TRACK 06 AUDIO TITLE "The Girl From Salina (instrumental)" PERFORMER "Clinic / Christophe / Bernard Gerard Orchestra" INDEX 01 09:27:38 TRACK 07 AUDIO TITLE "Cold Water" PERFORMER "Clinic / Christophe / Bernard Gerard Orchestra" INDEX 01 11:41:11 TRACK 08 AUDIO TITLE "That's Nothing" PERFORMER "Clinic / Christophe / Bernard Gerard Orchestra" INDEX 01 14:18:42 TRACK 09 AUDIO TITLE "The Road To Salina" PERFORMER "Clinic / Christophe / Bernard Gerard Orchestra" INDEX 01 15:27:47 TRACK 10 AUDIO TITLE "Sunny Road To Salina" PERFORMER "Clinic / Christophe / Bernard Gerard Orchestra" INDEX 01 18:24:72 TRACK 11 AUDIO TITLE "The Chase" PERFORMER "Clinic / Christophe / Bernard Gerard Orchestra" INDEX 01 22:45:71 TRACK 12 AUDIO TITLE "The Girl From Salina (orchestral)" PERFORMER "Clinic / Christophe / Bernard Gerard Orchestra" INDEX 01 23:49:33 TRACK 13 AUDIO TITLE "Jacqueline" PERFORMER "Clinic / Christophe / Bernard Gerard Orchestra" INDEX 01 26:25:57 TRACK 14 AUDIO TITLE "Green Dream" PERFORMER "Clinic / Christophe / Bernard Gerard Orchestra" INDEX 01 28:51:74 TRACK 15 AUDIO TITLE "Red Mountain" PERFORMER "Clinic / Christophe / Bernard Gerard Orchestra" INDEX 01 31:03:48
-----------------------

DON'T MODIFY THIS FILE

-----------------------

PERFORMER: auCDtect Task Manager, ver. 1.5.1RC6 build 1.5.1.7Copyright (c) 2008-2010 y-soft. All rights reservedhttp://y-soft.org

ANALYZER: auCDtect: CD records authenticity detector, version 0.8.2Copyright (c) 2004 Oleg Berngardt. All rights reserved.Copyright (c) 2004 Alexander Djourik. All rights reserved.

FILE: Clinic , Christophe , Bernard Gerard Orchestra - La route de Salina - OST.flac Size: 198296390 Hash: 964359D27A8D6ECBBA86E60E32609174 Accuracy: -m0 Conclusion: CDDA 100% Signature: 89DC6AE520AEBBF324571204F16CFC19971F344D
- Clinic: Philip Brigman - electric and acoustic guitar, vocals Phil Trainer - bass guitar, vocals Alan Reeves - organ, mellotron, piano, vocals Chris Hayward - flute Gerry Murphy - drums- Christophe- Bernard Gerard Orchestra
Музыкальная "озвучка" культовой "Дороги на Салину" Жоржа Лотнера, проложенная психеделикой малоизвестной "Клиники" в замен "спасовавших" Пинков

Допинформ - фильм "лежит" здесь http://unionpeer.org/forum/viewtopic.php?t=3985025

Трекер:  [ 12-Июн-2013 16:36 ]

  

Скачать .torrent

Размер .torrent файла 17 KB


Размер: 206 MB
Хэш (hash) релиза: cb00792ba8f9e096a23cc7e9773387d971da4a10

bot

Топик был перенесен в форум Саундтреки к фильмам и мультфильмам (lossless)

Перенес Galfimbul

Хотите добавить комментарий к записи скачать торрент Дорога на Салину La route de Salina

!Обратная связь