Скачать через торрент музыку Taylor Swift - We Are Never Ever Getting Back Togethe бесплатно без регистрации torrent

Если у вас наблюдаются проблемы со скриншотами, переходом по ссылками, скачиванием торрентов - проблемы в блокировщике рекламы AdBlock. #хорошегоДня!


Статистика раздачи
Размер:  352 MB   |    Зарегистрирован:  4 года 8 месяцев   |    .torrent скачан:  43 раза   |   
Раздают:  1  
   
Загрузка...
 
Автор Сообщение

Galfimbul

avatar Galfimbul


Taylor Swift - We Are Never Ever Getting Back Together( Live,Canal+,Le grand journal, la suite,28.01.2013)
[i]Жанр: pop,country pop
Продолжительность: 00:03:48
Год выпуска: 2013
Complete name : T.Swift - We Are Never...(C+).tsFormat : MPEG-TSFile size : 352 MiBDuration : 3mn 48sOverall bit rate mode : VariableOverall bit rate : 12.9 Mbps

VideoID : 160 (0xA0)Menu ID : 8801 (0x2261)Format : AVCFormat/Info : Advanced Video CodecFormat profile : High@L4.0Format settings, CABAC : YesFormat settings, ReFrames : 4 framesCodec ID : 27Duration : 3mn 48sBit rate : 12.1 MbpsWidth : 1 920 pixelsHeight : 1 080 pixelsDisplay aspect ratio : 16:9Frame rate : 25.000 fpsColor space : YUVChroma subsampling : 4:2:0Bit depth : 8 bitsScan type : MBAFFBits/(Pixel*Frame) : 0.233Stream size : 329 MiB (93%)Color primaries : BT.709Transfer characteristics : BT.709Matrix coefficients : BT.709

AudioID : 82 (0x52)Menu ID : 8801 (0x2261)Format : AC-3Format/Info : Audio Coding 3Mode extension : CM (complete main)Format settings, Endianness : BigCodec ID : 6Duration : 3mn 48sBit rate mode : ConstantBit rate : 192 KbpsChannel(s) : 2 channelsChannel positions : Front: L RSampling rate : 48.0 KHzBit depth : 16 bitsCompression mode : LossyDelay relative to video : 20msStream size : 5.22 MiB (1%)Language : French


Трекер:  [ 20-Мар-2013 16:57 ]

  

Скачать .torrent

Размер .torrent файла 14 KB


Размер: 352 MB
Хэш (hash) релиза: b28a2665dd313ea04c3f60eab85536df57e967ee

Торренты, похожие на Taylor Swift - We Are Never Ever Getting Back Togethe скачать торрент

Форум Название Автор Размер S L Добавлен
Фольклор, Народная и Этническая музыка (video) ·· Taylor Swift - We Are Never Ever Getting Back Together (MTV First Look) [2012, Pop, bubblegum pop, HDTV 1080i] Galfimbul 415341444396 MB 0 0 1361798596

16:23

25-Фев-13

Фольклор, Народная и Этническая музыка (video) ·· Taylor Swift - We Are Never Ever Getting Back Together (The X Factor UK) October 14, 2012 [Bubblegum pop, HDTV 1080i] Galfimbul 314981968300 MB 0 0 1361798592

16:23

25-Фев-13

Фольклор, Народная и Этническая музыка (video) ·· Taylor Swift - We Are Never Ever Getting Back Together (Live @ MTV VMA) September 6, 2012 [Pop, HDTV 1080i] Galfimbul 12095891801.13 GB 0 0 1361798588

16:23

25-Фев-13

Фольклор, Народная и Этническая музыка (video) ·· Taylor Swift - We Are Never Ever Getting Back Together (Dancing With The Stars) October 30, 2012 [Pop, HDTV 720p] Galfimbul 351233256335 MB 0 0 1361798584

16:23

25-Фев-13

Фольклор, Народная и Этническая музыка (video) ·· Taylor Swift - We Are Never Ever Getting Back Together (Live @ Katie Couric) October 26, 2012 [2012, Country pop, HDTV 1080i] Galfimbul 469148736447 MB 0 0 1361798580

16:23

25-Фев-13

Фольклор, Народная и Этническая музыка (video) ·· Taylor Swift - We Are Never Ever Getting Back Together (VH1) [2012, Pop, HDTVRip 1080p] Galfimbul 312726412298 MB 0 0 1361798373

16:19

25-Фев-13

Фольклор, Народная и Этническая музыка (video) ·· Taylor Swift - We Are Never Ever Getting Back Together (VA - NRJ Music Awards 2013. Live,TF [2013, Country, Pop, HDTV 1080i] Galfimbul 177020579169 MB 0 0 1361798298

16:18

25-Фев-13

Фольклор, Народная и Этническая музыка (video) ·· Taylor Swift - We Are Never Ever Getting Back Together (Live @ SMAP×SMAP) January 21, 2013 [Pop, bubblegum pop, HDTV 1080i] Galfimbul 304296800290 MB 0 0 1361798266

16:17

25-Фев-13

Фольклор, Народная и Этническая музыка (video) ·· Taylor Swift - We Are Never Ever Getting Back Together (The 55th Annual Grammy Awards) February 10, 2013 [Bubblegum pop, HDTV 1080i] Galfimbul 18415545641.72 GB 0 0 1361798195

16:16

25-Фев-13

Еще никто не оставлял запись к записи скачать торрент Taylor Swift - We Are Never Ever Getting Back Togethe . Будь первым!

!Обратная связь