Скачать через торрент музыку Taylor Swift бесплатно без регистрации torrent

Если у вас наблюдаются проблемы со скриншотами, переходом по ссылками, скачиванием торрентов - проблемы в блокировщике рекламы AdBlock. #хорошегоДня!


Статистика раздачи
Размер:  1.1 GB   |    Зарегистрирован:  4 года 8 месяцев   |    .torrent скачан:  56 раз   |   
Раздают:  1  
   
Загрузка...
 
Автор Сообщение

Galfimbul

avatar Galfimbul


Taylor Swift (Live @ Dick Clark's New Year's Rockin' Eve With Ryan Seacrest 2013) December 31, 2012

Жанр: Popstep, pop, bubblegum pop
Продолжительность: 03:43 + 02:47
Год выпуска: 2012

Треклист:
01. I Knew You Were Trouble
02. We Are Never Ever Getting Back Together

Качество: HDTVRip 720p
Контейнер: TS

Видео: AVC 1280x720 16:9 22.2 Mbps 59.940 fps
Аудио: AC3 640 Kbps 6 channels 48.0 KHz
GeneralID : 1 (0x1)Complete name : D:\Taylor Swift - Dick Clark's New Year's Rockin' Eve With Ryan Seacrest 2013\Taylor Swift - I Knew You Were Trouble (Dick Clark's New Year's Rockin' Eve With Ryan Seacrest 2013).tsFormat : MPEG-TSFile size : 643 MiBDuration : 3mn 43sOverall bit rate : 24.1 MbpsMaximum Overall bit rate : 35.5 Mbps

VideoID : 4113 (0x1011)Menu ID : 1 (0x1)Format : AVCFormat/Info : Advanced Video CodecFormat profile : High@L4.1Format settings, CABAC : YesFormat settings, ReFrames : 4 framesCodec ID : 27Duration : 3mn 43sBit rate mode : VariableBit rate : 22.3 MbpsMaximum bit rate : 40.0 MbpsWidth : 1 280 pixelsHeight : 720 pixelsDisplay aspect ratio : 16:9Frame rate : 59.940 fpsColor space : YUVChroma subsampling : 4:2:0Bit depth : 8 bitsScan type : ProgressiveBits/(Pixel*Frame) : 0.403Stream size : 594 MiB (92%)Color primaries : BT.709-5, BT.1361, IEC 61966-2-4, SMPTE RP177Transfer characteristics : BT.709-5, BT.1361Matrix coefficients : BT.709-5, BT.1361, IEC 61966-2-4 709, SMPTE RP177

AudioID : 4352 (0x1100)Menu ID : 1 (0x1)Format : AC-3Format/Info : Audio Coding 3Mode extension : CM (complete main)Codec ID : 129Duration : 3mn 43sBit rate mode : ConstantBit rate : 640 KbpsChannel(s) : 6 channelsChannel positions : Front: L C R, Side: L R, LFESampling rate : 48.0 KHzBit depth : 16 bitsCompression mode : LossyStream size : 17.1 MiB (3%)Language : English

TextID : 4113 (0x1011)608-1Menu ID : 1 (0x1)Format : EIA-608Muxing mode : SCTE 128 / DTVCC TransportMuxing mode, more info : Muxed in Video #1Duration : 3mn 43sStream size : 0.00 Byte (0%)ContentInfo : No content
GeneralID : 1 (0x1)Complete name : D:\Taylor Swift - Dick Clark's New Year's Rockin' Eve With Ryan Seacrest 2013\Taylor Swift - We Are Never Ever Getting Back Together (Dick Clark's New Year's Rockin' Eve With Ryan Seacrest 2013).tsFormat : MPEG-TSFile size : 481 MiBDuration : 2mn 47sOverall bit rate : 24.1 MbpsMaximum Overall bit rate : 35.5 Mbps

VideoID : 4113 (0x1011)Menu ID : 1 (0x1)Format : AVCFormat/Info : Advanced Video CodecFormat profile : High@L4.1Format settings, CABAC : YesFormat settings, ReFrames : 4 framesFormat settings, GOP : M=3, N=63Codec ID : 27Duration : 2mn 47sBit rate mode : VariableBit rate : 22.2 MbpsMaximum bit rate : 40.0 MbpsWidth : 1 280 pixelsHeight : 720 pixelsDisplay aspect ratio : 16:9Frame rate : 59.940 fpsColor space : YUVChroma subsampling : 4:2:0Bit depth : 8 bitsScan type : ProgressiveBits/(Pixel*Frame) : 0.403Stream size : 444 MiB (92%)Color primaries : BT.709-5, BT.1361, IEC 61966-2-4, SMPTE RP177Transfer characteristics : BT.709-5, BT.1361Matrix coefficients : BT.709-5, BT.1361, IEC 61966-2-4 709, SMPTE RP177

AudioID : 4352 (0x1100)Menu ID : 1 (0x1)Format : AC-3Format/Info : Audio Coding 3Mode extension : CM (complete main)Codec ID : 129Duration : 2mn 47sBit rate mode : ConstantBit rate : 640 KbpsChannel(s) : 6 channelsChannel positions : Front: L C R, Side: L R, LFESampling rate : 48.0 KHzBit depth : 16 bitsCompression mode : LossyDelay relative to video : -64msStream size : 12.8 MiB (3%)Language : English

TextID : 4113 (0x1011)608-1Menu ID : 1 (0x1)Format : EIA-608Muxing mode : SCTE 128 / DTVCC TransportMuxing mode, more info : Muxed in Video #1Duration : 2mn 47sStream size : 0.00 Byte (0%)ContentInfo : No content
I Knew You Were Trouble
We Are Never Ever Getting Back Together


Трекер:  [ 20-Мар-2013 16:57 ]

  

Скачать .torrent

Размер .torrent файла 11 KB


Размер: 1.1 GB
Хэш (hash) релиза: 87361d0aa7c099d36a8b18e1a2252c8327a627f5

Торренты, похожие на Taylor Swift скачать торрент

Форум Название Автор Размер S L Добавлен
Фольклор, Народная и Этническая музыка (video) ·· Taylor Swift & Ed Sheeran - Everything Has Changed [2013, Country pop, folk-pop, Master 1080p] Polarnik 13269215261.24 GB 0 0 1379406604

11:30

17-Сен-13

Фольклор, Народная и Этническая музыка (video) ·· Taylor Swift - Live On The Seine (Concert In Paris, France) January 19, 2013 [Country pop, Electropop, Bubblegum pop, Country rock, HDTVRip 1080p] Polarnik 27907153922.6 GB 0 0 1379365208

00:00

17-Сен-13

Rap, Hip-Hop, R'n'B (video) ·· B.o.B & Taylor Swift - Both Of Us (MUCHHD) [2012, Pop rap, country pop, conscious hip hop, HDTV 1080i] Galfimbul 312749092298 MB 0 0 1362011820

03:37

28-Фев-13

Фольклор, Народная и Этническая музыка (video) ·· Taylor Swift - You Belong With Me (Palladia) [2009, Country pop, HDTV 1080i] Galfimbul 243166333232 MB 0 0 1361798628

16:23

25-Фев-13

Фольклор, Народная и Этническая музыка (video) ·· Taylor Swift - Live at iHeartRadio Music Festival 2012 [2012 г., Pop, HDTV (Feed)] Galfimbul 82110084767.65 GB 0 0 1361798608

16:23

25-Фев-13

Фольклор, Народная и Этническая музыка (video) ·· Taylor Swift - We Are Never Ever Getting Back Together (MTV First Look) [2012, Pop, bubblegum pop, HDTV 1080i] Galfimbul 415341444396 MB 0 0 1361798596

16:23

25-Фев-13

Фольклор, Народная и Этническая музыка (video) ·· Taylor Swift - We Are Never Ever Getting Back Together (The X Factor UK) October 14, 2012 [Bubblegum pop, HDTV 1080i] Galfimbul 314981968300 MB 0 0 1361798592

16:23

25-Фев-13

Фольклор, Народная и Этническая музыка (video) ·· Taylor Swift - We Are Never Ever Getting Back Together (Live @ MTV VMA) September 6, 2012 [Pop, HDTV 1080i] Galfimbul 12095891801.13 GB 0 0 1361798588

16:23

25-Фев-13

Фольклор, Народная и Этническая музыка (video) ·· Taylor Swift - We Are Never Ever Getting Back Together (Dancing With The Stars) October 30, 2012 [Pop, HDTV 720p] Galfimbul 351233256335 MB 0 0 1361798584

16:23

25-Фев-13

Фольклор, Народная и Этническая музыка (video) ·· Taylor Swift - We Are Never Ever Getting Back Together (Live @ Katie Couric) October 26, 2012 [2012, Country pop, HDTV 1080i] Galfimbul 469148736447 MB 0 0 1361798580

16:23

25-Фев-13

Фольклор, Народная и Этническая музыка (video) ·· Taylor Swift (Live @ Good Morning America) October 23, 2012 [Country pop, HDTV 720p] Galfimbul 12030150081.12 GB 0 0 1361798576

16:22

25-Фев-13

Фольклор, Народная и Этническая музыка (video) ·· Taylor Swift - I Knew You Were Trouble (AMA 2012) [2012, Pop, HDTVRip 720p] Galfimbul 220144658210 MB 0 0 1361798569

16:22

25-Фев-13

Фольклор, Народная и Этническая музыка (video) ·· Taylor Swift - VH1 Storytellers (11.11.2012) [2012, Country, Country Pop, HDTV 1080i] Galfimbul 51894335604.83 GB 0 0 1361798565

16:22

25-Фев-13

Фольклор, Народная и Этническая музыка (video) ·· Taylor Swift - Begin Again (46th Annual CMA Awards) November 01, 2012 [Country, HDTV 720p] Galfimbul 369370744352 MB 0 0 1361798561

16:22

25-Фев-13

Фольклор, Народная и Этническая музыка (video) ·· Taylor Swift - Red (The Late Show with David Letterman) October 23, 2012 [Country pop, pop rock, HDTV 1080i] Galfimbul 539825832515 MB 0 0 1361798557

16:22

25-Фев-13

Фольклор, Народная и Этническая музыка (video) ·· Taylor Swift - State Of Grace (The X Factor US) November 15, 2012 [Arena rock, alternative rock, HDTV 720p] Galfimbul 273305776261 MB 0 0 1361798505

16:21

25-Фев-13

Фольклор, Народная и Этническая музыка (video) ·· Taylor Swift - Ronan (Stand Up To Cancer) September 7, 2012 [Country folk, HDTV 1080i] Galfimbul 12333841521.15 GB 0 0 1361798496

16:21

25-Фев-13

Фольклор, Народная и Этническая музыка (video) ·· Taylor Swift - Love Story (Live @ Good Morning America) November 10, 2008 [Country pop, HDTV 720p] Galfimbul 377891092360 MB 0 0 1361798480

16:21

25-Фев-13

Фольклор, Народная и Этническая музыка (video) ·· Taylor Swift - Mean (The 54th Annual Grammy Awards) February 12, 2012 [Country, HDTV 720p] Galfimbul 334579476319 MB 0 0 1361798453

16:20

25-Фев-13

Фольклор, Народная и Этническая музыка (video) ·· Taylor Swift - White Horse (Palladia) [2008, Country pop, HDTV 1080i] Galfimbul 434383588414 MB 0 0 1361798418

16:20

25-Фев-13

Еще никто не оставлял запись к записи скачать торрент Taylor Swift . Будь первым!

!Обратная связь