Скачать через торрент музыку Rodrigo y Gabriela and C.U.B.A. - Live on Austin City Limits бесплатно без регистрации torrent

Если у вас наблюдаются проблемы со скриншотами, переходом по ссылками, скачиванием торрентов - проблемы в блокировщике рекламы AdBlock. #хорошегоДня!


Статистика раздачи
Размер:  2.01 GB   |    Зарегистрирован:  4 года 8 месяцев   |    .torrent скачан:  47 раз   |   
Раздают:  1  
   
Загрузка...
 
Автор Сообщение

Galfimbul

avatar Galfimbul


Rodrigo y Gabriela and C.U.B.A. - Live on Austin City Limits

Жанр: Acoustic, Folk, Flamenco
Продолжительность: 00:52:40
Год выпуска: 2012

Описание: Дата ТВ эфира 12 января 2013

Треклист:
01. Intro Santa Domingo
02. Hanuman
03. Savriti
04. Rodrigo's Solo
05. Hora Zero
06. Gabriela's Solo
07. 11:11
08. Tamacun
09. Diablo Rojo
10. Stage Exit
11. Interview
12. Credits

Доп. информация: Чаптеры подписаны

Качество: HDTVRip 720p
Контейнер: MKV
Видео кодек: H.264
Аудио кодек: AC3
Видео: AVC, 1280x720, 16:9, 4974 Kbps, 29.97 fps
Аудио: AC3, 384 Kbps, 48 kHz, 6 ch
GeneralUnique ID : 208342649601620860797577719697668320750 (0x9CBD55B292F58D0895A66CBFE7182DEE)Complete name : K:\Rodrigo_y_Gabriela_with_C.U.B.A.-Austin_City_Limits_(2013-01-12)-720p-x264-2013-SRP\rodrigo_y_gabriela-austin_city_limits_(2013-01-12)-720p-x264-2013-srp.mkvFormat : MatroskaFormat version : Version 2File size : 2.01 GiBDuration : 52mn 40sOverall bit rate : 5 467 KbpsEncoded date : UTC 2013-01-21 19:47:54Writing application : mkvmerge v5.8.0 ('No Sleep / Pillow') built on Sep 2 2012 15:37:04Writing library : libebml v1.2.3 + libmatroska v1.3.0

VideoID : 2Format : AVCFormat/Info : Advanced Video CodecFormat profile : High@L4.1Format settings, CABAC : YesFormat settings, ReFrames : 5 framesCodec ID : V_MPEG4/ISO/AVCDuration : 52mn 40sBit rate : 4 974 KbpsWidth : 1 280 pixelsHeight : 720 pixelsDisplay aspect ratio : 16:9Frame rate : 29.970 fpsColor space : YUVChroma subsampling : 4:2:0Bit depth : 8 bitsScan type : ProgressiveBits/(Pixel*Frame) : 0.180Stream size : 1.83 GiB (91%)Writing library : x264 core 129 r2230 1cffe9fEncoding settings : cabac=1 / ref=5 / deblock=1:1:1 / analyse=0x3:0x133 / me=esa / subme=10 / psy=1 / psy_rd=1.00:0.00 / mixed_ref=0 / me_range=24 / chroma_me=1 / trellis=2 / 8x8dct=1 / cqm=0 / deadzone=21,11 / fast_pskip=0 / chroma_qp_offset=-2 / threads=18 / lookahead_threads=3 / sliced_threads=0 / nr=0 / decimate=1 / interlaced=0 / bluray_compat=0 / constrained_intra=0 / bframes=16 / b_pyramid=2 / b_adapt=2 / b_bias=0 / direct=3 / weightb=1 / open_gop=0 / weightp=2 / keyint=360 / keyint_min=35 / scenecut=40 / intra_refresh=0 / rc_lookahead=50 / rc=crf / mbtree=1 / crf=17.0 / qcomp=0.60 / qpmin=0 / qpmax=69 / qpstep=4 / ip_ratio=1.40 / aq=1:1.00Language : EnglishDefault : YesForced : No

AudioID : 1Format : AC-3Format/Info : Audio Coding 3Mode extension : CM (complete main)Format settings, Endianness : BigCodec ID : A_AC3Duration : 52mn 40sBit rate mode : ConstantBit rate : 384 KbpsChannel(s) : 6 channelsChannel positions : Front: L C R, Side: L R, LFESampling rate : 48.0 KHzBit depth : 16 bitsCompression mode : LossyDelay relative to video : 10msStream size : 145 MiB (7%)Default : YesForced : No

Menu00:00:00.000 : en:01. Intro + Santa Domingo00:02:35.200 : en:02. Hanuman00:10:00.200 : en:03. Savriti00:13:50.100 : en:04. Rodrigo's Solo00:18:23.250 : en:05. Hora Zero00:23:58.250 : en:06. Gabriela's Solo00:26:55.100 : en:07. 11:1100:35:35.200 : en:08. Tamacun00:42:47.100 : en:09. Diablo Rojo00:49:30.250 : en:10. Stage Exit00:50:42.100 : en:11. Interview00:51:42.200 : en:12. Credits


Трекер:  [ 20-Мар-2013 16:57 ]

  

Скачать .torrent

Размер .torrent файла 10 KB


Размер: 2.01 GB
Хэш (hash) релиза: 8d8987a525e645d5074f50b7185867916f262301

Еще никто не оставлял запись к записи скачать торрент Rodrigo y Gabriela and C.U.B.A. - Live on Austin City Limits . Будь первым!

!Обратная связь