Скачать через торрент музыку Taylor Swift - Begin Again бесплатно без регистрации torrent

Если у вас наблюдаются проблемы со скриншотами, переходом по ссылками, скачиванием торрентов - проблемы в блокировщике рекламы AdBlock. #хорошегоДня!


Статистика раздачи
Размер:  326 MB   |    Зарегистрирован:  4 года 8 месяцев   |    .torrent скачан:  42 раза   |   
Раздают:  1  
   
Загрузка...
 
Автор Сообщение

Galfimbul

avatar Galfimbul


Taylor Swift - Begin Again (Palladia)

Жанр: Country
Продолжительность: 03:58
Год выпуска: 2012

Качество: HDTV 1080i
Контейнер: TS

Видео: MPEG2 1920x1080 16:9 10.5 Mbps 29.970 fps
Аудио: AC3 384 kbps 2 channels 48.0 KHz
GeneralID : 16 (0x10)Complete name : D:\Taylor Swift - Begin Again.tsFormat : MPEG-TSFile size : 326 MiBDuration : 3mn 57sOverall bit rate : 11.5 Mbps

VideoID : 1984 (0x7C0)Menu ID : 3 (0x3)Format : MPEG VideoFormat version : Version 2Format profile : Main@HighFormat settings, BVOP : YesFormat settings, Matrix : DefaultCodec ID : 2Duration : 3mn 58sBit rate mode : VariableBit rate : 10.5 MbpsNominal bit rate : 38.8 MbpsWidth : 1 920 pixelsHeight : 1 080 pixelsDisplay aspect ratio : 16:9Frame rate : 29.970 fpsColor space : YUVChroma subsampling : 4:2:0Bit depth : 8 bitsCompression mode : LossyBits/(Pixel*Frame) : 0.170Stream size : 299 MiB (92%)Writing library : (c) 1998-2010 Womble Multimedia, Inc. / MPEG Video Wizard DVD 5.0.0.114 (01/2010) / Jan 5 2011

AudioID : 1985 (0x7C1)Menu ID : 3 (0x3)Format : AC-3Format/Info : Audio Coding 3Mode extension : CM (complete main)Codec ID : 129Duration : 3mn 58sBit rate mode : ConstantBit rate : 384 KbpsChannel(s) : 2 channelsChannel positions : Front: L RSampling rate : 48.0 KHzBit depth : 16 bitsCompression mode : LossyStream size : 10.9 MiB (3%)

Text #1ID : 1984 (0x7C0)608-1Menu ID : 3 (0x3)Format : EIA-608Muxing mode : A/53 / DTVCC TransportMuxing mode, more info : Muxed in Video #1Duration : 3mn 58sStream size : 0.00 Byte (0%)

Text #2ID : 1984 (0x7C0)1Menu ID : 3 (0x3)Format : EIA-708Muxing mode : A/53 / DTVCC TransportMuxing mode, more info : Muxed in Video #1Duration : 3mn 58sStream size : 0.00 Byte (0%)


Трекер:  [ 20-Мар-2013 16:57 ]

  

Скачать .torrent

Размер .torrent файла 13 KB


Размер: 326 MB
Хэш (hash) релиза: 9efd69b964e7399d3a36870cc39526b38cd4d23e

Торренты, похожие на Taylor Swift - Begin Again скачать торрент

Форум Название Автор Размер S L Добавлен
Фольклор, Народная и Этническая музыка (video) ·· Taylor Swift - Begin Again (46th Annual CMA Awards) November 01, 2012 [Country, HDTV 720p] Galfimbul 369370744352 MB 0 0 1361798561

16:22

25-Фев-13

Еще никто не оставлял запись к записи скачать торрент Taylor Swift - Begin Again . Будь первым!

!Обратная связь