Скачать через торрент музыку Taylor Swift - Safe & Sound бесплатно без регистрации torrent

Если у вас наблюдаются проблемы со скриншотами, переходом по ссылками, скачиванием торрентов - проблемы в блокировщике рекламы AdBlock. #хорошегоДня!


Статистика раздачи
Размер:  254 MB   |    Зарегистрирован:  4 года 8 месяцев   |    .torrent скачан:  50 раз   |   
Раздают:  1  
   
Загрузка...
 
Автор Сообщение

Galfimbul

avatar Galfimbul


Taylor Swift - Safe & Sound (VH1HD)

Жанр: Country, folk rock
Продолжительность: 03:53
Год выпуска: 2012

Качество: HDTV 1080i
Контейнер: TS

Видео: AVC 1920x1080 16:9 8 276 Kbps 29.970 fps
Аудио: AC3 384 kbps 2 channels 48.0 KHz
GeneralID : 1 (0x1)Complete name : D:\Taylor Swift - Safe & Sound.tsFormat : MPEG-TSFile size : 254 MiBDuration : 3mn 53sOverall bit rate : 9 115 Kbps

VideoID : 5408 (0x1520)Menu ID : 1 (0x1)Format : AVCFormat/Info : Advanced Video CodecFormat profile : Main@L4.0Format settings, CABAC : YesFormat settings, ReFrames : 2 framesCodec ID : 27Duration : 3mn 53sBit rate : 8 276 KbpsWidth : 1 920 pixelsHeight : 1 080 pixelsDisplay aspect ratio : 16:9Frame rate : 29.970 fpsColor space : YUVChroma subsampling : 4:2:0Bit depth : 8 bitsScan type : MBAFFBits/(Pixel*Frame) : 0.133Stream size : 231 MiB (91%)Color primaries : BT.709-5, BT.1361, IEC 61966-2-4, SMPTE RP177Transfer characteristics : BT.709-5, BT.1361Matrix coefficients : BT.709-5, BT.1361, IEC 61966-2-4 709, SMPTE RP177

AudioID : 5409 (0x1521)Menu ID : 1 (0x1)Format : AC-3Format/Info : Audio Coding 3Mode extension : CM (complete main)Codec ID : 129Duration : 3mn 53sBit rate mode : ConstantBit rate : 384 KbpsChannel(s) : 2 channelsChannel positions : Front: L RSampling rate : 48.0 KHzBit depth : 16 bitsCompression mode : LossyStream size : 10.7 MiB (4%)Language : English


Трекер:  [ 20-Мар-2013 16:58 ]

  

Скачать .torrent

Размер .torrent файла 20 KB


Размер: 254 MB
Хэш (hash) релиза: 1ba5d83d9b65eea05855b89222146a8e2a33e7c6

Еще никто не оставлял запись к записи скачать торрент Taylor Swift - Safe & Sound . Будь первым!

!Обратная связь