Скачать через торрент музыку Taylor Swift - Love Story бесплатно без регистрации torrent

Если у вас наблюдаются проблемы со скриншотами, переходом по ссылками, скачиванием торрентов - проблемы в блокировщике рекламы AdBlock. #хорошегоДня!


Статистика раздачи
Размер:  360 MB   |    Зарегистрирован:  4 года 8 месяцев   |    .torrent скачан:  45 раз   |   
Раздают:  1  
   
Загрузка...
 
Автор Сообщение

Galfimbul

avatar Galfimbul


Taylor Swift - Love Story (Live @ Good Morning America) November 10, 2008

Жанр: Country pop
Продолжительность: 03:37
Год выпуска: 2008

Качество: HDTV 720p
Контейнер: TS

Видео: MPEG 1280x720 16:9 12.8 Mbps 59.940 fps
Аудио: AC3 384 Kbps 6 channels 48.0 KHz
GeneralID : 1 (0x1)Complete name : D:\Taylor Swift - Love Story (Good Morning America 10.11.2008).tsFormat : MPEG-TSFile size : 360 MiBDuration : 3mn 37sOverall bit rate : 13.9 MbpsMaximum Overall bit rate : 35.5 Mbps

VideoID : 4113 (0x1011)Menu ID : 1 (0x1)Format : MPEG VideoFormat_Commercial_IfAny : HDV 720pFormat version : Version 2Format profile : Main@HighFormat settings, BVOP : YesFormat settings, Matrix : DefaultFormat settings, GOP : M=3, N=30Codec ID : 2Duration : 3mn 37sBit rate mode : VariableBit rate : 12.8 MbpsNominal bit rate : 14.3 MbpsWidth : 1 280 pixelsHeight : 720 pixelsDisplay aspect ratio : 16:9Frame rate : 59.940 fpsStandard : ComponentColor space : YUVChroma subsampling : 4:2:0Bit depth : 8 bitsScan type : ProgressiveCompression mode : LossyBits/(Pixel*Frame) : 0.232Stream size : 332 MiB (92%)

AudioID : 4352 (0x1100)Menu ID : 1 (0x1)Format : AC-3Format/Info : Audio Coding 3Mode extension : CM (complete main)Codec ID : 129Duration : 3mn 37sBit rate mode : ConstantBit rate : 384 KbpsChannel(s) : 6 channelsChannel positions : Front: L C R, Side: L R, LFESampling rate : 48.0 KHzBit depth : 16 bitsCompression mode : LossyDelay relative to video : -43msStream size : 9.97 MiB (3%)

Text #1ID : 4113 (0x1011)608-1Menu ID : 1 (0x1)Format : EIA-608Muxing mode : A/53 / DTVCC TransportMuxing mode, more info : Muxed in Video #1Duration : 3mn 37sStream size : 0.00 Byte (0%)

Text #2ID : 4113 (0x1011)1Menu ID : 1 (0x1)Format : EIA-708Muxing mode : A/53 / DTVCC TransportMuxing mode, more info : Muxed in Video #1Duration : 3mn 37sStream size : 0.00 Byte (0%)


Трекер:  [ 20-Мар-2013 16:58 ]

  

Скачать .torrent

Размер .torrent файла 14 KB


Размер: 360 MB
Хэш (hash) релиза: 85f84f0ed2f6d0f6caf962b969fa2999ac75589e

Еще никто не оставлял запись к записи скачать торрент Taylor Swift - Love Story . Будь первым!

!Обратная связь