Скачать через торрент музыку Taylor Swift - Begin Again бесплатно без регистрации torrent

Если у вас наблюдаются проблемы со скриншотами, переходом по ссылками, скачиванием торрентов - проблемы в блокировщике рекламы AdBlock. #хорошегоДня!


Статистика раздачи
Размер:  352 MB   |    Зарегистрирован:  4 года 8 месяцев   |    .torrent скачан:  48 раз   |   
Раздают:  1  
   
Загрузка...
 
Автор Сообщение

Galfimbul

avatar Galfimbul


Taylor Swift - Begin Again (46th Annual CMA Awards) November 01, 2012

Жанр: Country
Продолжительность: 04:30
Год выпуска: 2012

Качество: HDTV 720p
Контейнер: TS

Видео: MPEG2 1280x720 16:9 9 988 Kbps 59.940 fps
Аудио: AC3 384 Kbps 6 channels 48.0 KHz
GeneralID : 1 (0x1)Complete name : D:\Taylor Swift - Begin Again (46th Annual CMA Awards 01.11.2012).tsFormat : MPEG-TSFile size : 352 MiBDuration : 4mn 30sOverall bit rate : 10.9 Mbps

VideoID : 525 (0x20D)Menu ID : 1 (0x1)Format : MPEG VideoFormat version : Version 2Format profile : Main@HighFormat settings, BVOP : YesFormat settings, Matrix : DefaultFormat settings, GOP : M=3, N=30Codec ID : 2Duration : 4mn 30sBit rate mode : VariableBit rate : 9 988 KbpsNominal bit rate : 38.8 MbpsWidth : 1 280 pixelsHeight : 720 pixelsDisplay aspect ratio : 16:9ActiveFormatDescription : Full frame 16:9 imageFrame rate : 59.940 fpsStandard : ComponentColor space : YUVChroma subsampling : 4:2:0Bit depth : 8 bitsScan type : ProgressiveCompression mode : LossyBits/(Pixel*Frame) : 0.181Stream size : 322 MiB (91%)

AudioID : 523 (0x20B)Menu ID : 1 (0x1)Format : AC-3Format/Info : Audio Coding 3Mode extension : CM (complete main)Codec ID : 129Duration : 4mn 30sBit rate mode : ConstantBit rate : 384 KbpsChannel(s) : 6 channelsChannel positions : Front: L C R, Side: L R, LFESampling rate : 48.0 KHzBit depth : 16 bitsCompression mode : LossyDelay relative to video : -372msStream size : 12.4 MiB (4%)Language : English

Text #1ID : 525 (0x20D)608-1Menu ID : 1 (0x1)Format : EIA-608Muxing mode : A/53 / DTVCC TransportMuxing mode, more info : Muxed in Video #1Duration : 4mn 30sStream size : 0.00 Byte (0%)

Text #2ID : 525 (0x20D)1Menu ID : 1 (0x1)Format : EIA-708Muxing mode : A/53 / DTVCC TransportMuxing mode, more info : Muxed in Video #1Duration : 4mn 30sStream size : 0.00 Byte (0%)


Трекер:  [ 20-Мар-2013 16:58 ]

  

Скачать .torrent

Размер .torrent файла 14 KB


Размер: 352 MB
Хэш (hash) релиза: ab1c48dba516fa5dba387159bd7d1858e98c80f8

Торренты, похожие на Taylor Swift - Begin Again скачать торрент

Форум Название Автор Размер S L Добавлен
Фольклор, Народная и Этническая музыка (video) ·· Taylor Swift - Begin Again (Palladia) [2012, Country, HDTV 1080i] Galfimbul 341852244326 MB 0 0 1361798333

16:18

25-Фев-13

Еще никто не оставлял запись к записи скачать торрент Taylor Swift - Begin Again . Будь первым!

!Обратная связь