Скачать через торрент музыку Riverdance - Live From Beijing бесплатно без регистрации torrent

Если у вас наблюдаются проблемы со скриншотами, переходом по ссылками, скачиванием торрентов - проблемы в блокировщике рекламы AdBlock. #хорошегоДня!


Статистика раздачи
Размер:  7.62 GB   |    Зарегистрирован:  4 года 8 месяцев   |    .torrent скачан:  88 раз   |   
Раздают:  1  
   
Загрузка...
 
Автор Сообщение

Galfimbul

avatar Galfimbul


Riverdance Live From Beijing

Жанр: Irish Dance, Music Show
Продолжительность: 1:41:00
Год выпуска: 2010

Участники: Padraic Moyles and Aislinn Ryan, The Riverdance Irish Dance Troupe, Riverdance Band, Riverdance Singers, Moscow Folk Ballet Company Featuring: Yolanda Gonzàles Sobrado, Ralph Cato, Kelly Isaac, Junior Laniyan and Brioni Gallagher. Also featuring Dong Nan, Wu Xiao Fang, Zhang Jian

Описание: Riverdance: Live из Пекина был снят в Beijing Exhibition Centre, чтобы отпраздновать 15-летие шоу в 2010 году. Riverdance демонстрирует невероятную красоту, энергию и мастерство танца в сочетании с увлекательным ритмом музыки. Эта запись, впервые с 2001 года, была снята на RED камеры высокой четкости, дающие качество 35-мм пленки. Каждый зритель Riverdance будут наслаждаться этим превосходным продуктом с Dolby Digital Surround Sound

Качество: BDRip 1080p
Контейнер: MKV
Видео кодек: H.264
Аудио кодек: DTS
Видео: AVC, 1920x1080, 16:9, 9267 Kbps, 29.97 fps
Аудио: DTS, 1510 Kbps, 48 KHz, 6 ch
GeneralUnique ID : 212000430105184263831159759398629669950 (0x9F7DCC333347A60EAD09684610D5FC3E)Complete name : K:\Riverdance.Live.From.Beijing.2010.1080p.MBluRay.x264-LOUNGE\Riverdance.Live.From.Beijing.2010.1080p.mkvFormat : MatroskaFormat version : Version 2File size : 7.62 GiBDuration : 1h 41mnOverall bit rate : 10.8 MbpsEncoded date : UTC 2012-11-12 14:40:31Writing application : mkvmerge v5.7.0 ('The Whirlwind') built on Jul 8 2012 20:08:51Writing library : libebml v1.2.3 + libmatroska v1.3.0

VideoID : 1Format : AVCFormat/Info : Advanced Video CodecFormat profile : High@L4.1Format settings, CABAC : YesFormat settings, ReFrames : 4 framesCodec ID : V_MPEG4/ISO/AVCDuration : 1h 41mnBit rate : 9 267 KbpsWidth : 1 920 pixelsHeight : 1 080 pixelsDisplay aspect ratio : 16:9Frame rate : 29.970 fpsColor space : YUVChroma subsampling : 4:2:0Bit depth : 8 bitsScan type : ProgressiveBits/(Pixel*Frame) : 0.149Stream size : 6.41 GiB (84%)Writing library : x264 core 129 r2230 1cffe9fEncoding settings : cabac=1 / ref=4 / deblock=1:0:0 / analyse=0x3:0x133 / me=umh / subme=8 / psy=1 / psy_rd=1.00:0.00 / mixed_ref=1 / me_range=16 / chroma_me=1 / trellis=1 / 8x8dct=1 / cqm=0 / deadzone=21,11 / fast_pskip=0 / chroma_qp_offset=-2 / threads=12 / lookahead_threads=2 / sliced_threads=0 / nr=0 / decimate=1 / interlaced=0 / bluray_compat=0 / constrained_intra=0 / bframes=3 / b_pyramid=2 / b_adapt=1 / b_bias=0 / direct=1 / weightb=1 / open_gop=0 / weightp=2 / keyint=250 / keyint_min=25 / scenecut=40 / intra_refresh=0 / rc_lookahead=40 / rc=2pass / mbtree=1 / bitrate=9267 / ratetol=1.0 / qcomp=0.60 / qpmin=0 / qpmax=69 / qpstep=4 / cplxblur=20.0 / qblur=0.5 / ip_ratio=1.40 / aq=1:1.00Language : EnglishDefault : YesForced : No

AudioID : 2Format : DTSFormat/Info : Digital Theater SystemsCodec ID : A_DTSDuration : 1h 41mnBit rate mode : ConstantBit rate : 1 510 KbpsChannel(s) : 6 channelsChannel positions : Front: L C R, Side: L R, LFESampling rate : 48.0 KHzBit depth : 24 bitsCompression mode : LossyStream size : 1.07 GiB (14%)Default : YesForced : No

Menu00:00:00.000 : en:00:00:00.00000:08:34.914 : en:00:08:34.91400:11:00.660 : en:00:11:00.66000:16:50.009 : en:00:16:50.00900:21:06.332 : en:00:21:06.33200:23:42.588 : en:00:23:42.58800:27:34.119 : en:00:27:34.11900:32:54.372 : en:00:32:54.37200:38:06.317 : en:00:38:06.31700:44:54.425 : en:00:44:54.42500:53:43.520 : en:00:53:43.52001:00:12.976 : en:01:00:12.97601:09:40.309 : en:01:09:40.30901:14:12.515 : en:01:14:12.51501:17:30.646 : en:01:17:30.64601:21:05.928 : en:01:21:05.92801:27:37.252 : en:01:27:37.25201:33:32.607 : en:01:33:32.607


Трекер:  [ 20-Мар-2013 16:58 ]

  

Скачать .torrent

Размер .torrent файла 19 KB


Размер: 7.62 GB
Хэш (hash) релиза: ca71a401ae68f50d48810158752c6594585e6899

Еще никто не оставлял запись к записи скачать торрент Riverdance - Live From Beijing . Будь первым!

!Обратная связь