Скачать через торрент музыку Taylor Swift бесплатно без регистрации torrent

Если у вас наблюдаются проблемы со скриншотами, переходом по ссылками, скачиванием торрентов - проблемы в блокировщике рекламы AdBlock. #хорошегоДня!


Статистика раздачи
Размер:  1.12 GB   |    Зарегистрирован:  4 года 8 месяцев   |    .torrent скачан:  50 раз   |   
Раздают:  1  
   
Загрузка...
 
Автор Сообщение

Galfimbul

avatar Galfimbul


Taylor Swift (Live @ Good Morning America) October 23, 2012

Жанр: Country pop
Продолжительность: 03:41 + 03:40 + 04:04
Год выпуска: 2012

Треклист:
01. We Are Never Ever Getting Back Together
02. Red
03. Love Story

Качество: HDTV 720p
Контейнер: TS

Видео: MPEG2 1280x720 16:9 13.0 Mbps 59.940 fps
Аудио: AC3 384 Kbps 6 channels 48.0 KHz
GeneralID : 1 (0x1)Complete name : D:\Taylor Swift - Good Morning America\Taylor Swift - We Are Never Ever Getting Back Together (Good Morning America 23. 10. 2012).tsFormat : MPEG-TSFile size : 376 MiBDuration : 3mn 41sOverall bit rate : 14.2 Mbps

VideoID : 540 (0x21C)Menu ID : 1 (0x1)Format : MPEG VideoFormat version : Version 2Format profile : Main@HighFormat settings, BVOP : YesFormat settings, Matrix : DefaultFormat settings, GOP : M=3, N=30Codec ID : 2Duration : 3mn 41sBit rate mode : VariableBit rate : 13.1 MbpsNominal bit rate : 38.8 MbpsWidth : 1 280 pixelsHeight : 720 pixelsDisplay aspect ratio : 16:9ActiveFormatDescription : Full frame 16:9 imageFrame rate : 59.940 fpsStandard : ComponentColor space : YUVChroma subsampling : 4:2:0Bit depth : 8 bitsScan type : ProgressiveCompression mode : LossyBits/(Pixel*Frame) : 0.238Stream size : 347 MiB (92%)

AudioID : 538 (0x21A)Menu ID : 1 (0x1)Format : AC-3Format/Info : Audio Coding 3Mode extension : CM (complete main)Codec ID : 129Duration : 3mn 41sBit rate mode : ConstantBit rate : 384 KbpsChannel(s) : 6 channelsChannel positions : Front: L C R, Side: L R, LFESampling rate : 48.0 KHzBit depth : 16 bitsCompression mode : LossyDelay relative to video : -352msStream size : 10.1 MiB (3%)Language : English

Text #1ID : 540 (0x21C)608-1Menu ID : 1 (0x1)Format : EIA-608Muxing mode : A/53 / DTVCC TransportMuxing mode, more info : Muxed in Video #1Duration : 3mn 41sStream size : 0.00 Byte (0%)

Text #2ID : 540 (0x21C)1Menu ID : 1 (0x1)Format : EIA-708Muxing mode : A/53 / DTVCC TransportMuxing mode, more info : Muxed in Video #1Duration : 3mn 41sStream size : 0.00 Byte (0%)
GeneralID : 1 (0x1)Complete name : D:\Taylor Swift - Good Morning America\Taylor Swift - Red (Good Morning America 23. 10. 2012).tsFormat : MPEG-TSFile size : 360 MiBDuration : 3mn 40sOverall bit rate : 13.7 Mbps

VideoID : 540 (0x21C)Menu ID : 1 (0x1)Format : MPEG VideoFormat version : Version 2Format profile : Main@HighFormat settings, BVOP : YesFormat settings, Matrix : DefaultFormat settings, GOP : M=3, N=30Codec ID : 2Duration : 3mn 39sBit rate mode : VariableBit rate : 12.6 MbpsNominal bit rate : 38.8 MbpsWidth : 1 280 pixelsHeight : 720 pixelsDisplay aspect ratio : 16:9ActiveFormatDescription : Full frame 16:9 imageFrame rate : 59.940 fpsStandard : ComponentColor space : YUVChroma subsampling : 4:2:0Bit depth : 8 bitsScan type : ProgressiveCompression mode : LossyBits/(Pixel*Frame) : 0.229Stream size : 331 MiB (92%)

AudioID : 538 (0x21A)Menu ID : 1 (0x1)Format : AC-3Format/Info : Audio Coding 3Mode extension : CM (complete main)Codec ID : 129Duration : 3mn 40sBit rate mode : ConstantBit rate : 384 KbpsChannel(s) : 6 channelsChannel positions : Front: L C R, Side: L R, LFESampling rate : 48.0 KHzBit depth : 16 bitsCompression mode : LossyDelay relative to video : -369msStream size : 10.1 MiB (3%)Language : English
GeneralID : 1 (0x1)Complete name : D:\Taylor Swift - Good Morning America\Taylor Swift - Love Story (Good Morning America 23. 10. 2012).tsFormat : MPEG-TSFile size : 411 MiBDuration : 4mn 4sOverall bit rate : 14.1 Mbps

VideoID : 540 (0x21C)Menu ID : 1 (0x1)Format : MPEG VideoFormat version : Version 2Format profile : Main@HighFormat settings, BVOP : YesFormat settings, Matrix : DefaultFormat settings, GOP : M=3, N=30Codec ID : 2Duration : 4mn 4sBit rate mode : VariableBit rate : 13.0 MbpsNominal bit rate : 38.8 MbpsWidth : 1 280 pixelsHeight : 720 pixelsDisplay aspect ratio : 16:9ActiveFormatDescription : Full frame 16:9 imageFrame rate : 59.940 fpsStandard : ComponentColor space : YUVChroma subsampling : 4:2:0Bit depth : 8 bitsScan type : ProgressiveCompression mode : LossyBits/(Pixel*Frame) : 0.236Stream size : 379 MiB (92%)

AudioID : 538 (0x21A)Menu ID : 1 (0x1)Format : AC-3Format/Info : Audio Coding 3Mode extension : CM (complete main)Codec ID : 129Duration : 4mn 4sBit rate mode : ConstantBit rate : 384 KbpsChannel(s) : 6 channelsChannel positions : Front: L C R, Side: L R, LFESampling rate : 48.0 KHzBit depth : 16 bitsCompression mode : LossyDelay relative to video : -365msStream size : 11.2 MiB (3%)Language : English

Text #1ID : 540 (0x21C)608-1Menu ID : 1 (0x1)Format : EIA-608Muxing mode : A/53 / DTVCC TransportMuxing mode, more info : Muxed in Video #1Duration : 4mn 4sStream size : 0.00 Byte (0%)

Text #2ID : 540 (0x21C)1Menu ID : 1 (0x1)Format : EIA-708Muxing mode : A/53 / DTVCC TransportMuxing mode, more info : Muxed in Video #1Duration : 4mn 4sStream size : 0.00 Byte (0%)
We Are Never Ever Getting Back Together
Red
Love Story


Трекер:  [ 20-Мар-2013 16:58 ]

  

Скачать .torrent

Размер .torrent файла 12 KB


Размер: 1.12 GB
Хэш (hash) релиза: 98c5e1ab75bf7d11982d46a1f117381b05de6c97

Торренты, похожие на Taylor Swift скачать торрент

Форум Название Автор Размер S L Добавлен
Фольклор, Народная и Этническая музыка (video) ·· Taylor Swift & Ed Sheeran - Everything Has Changed [2013, Country pop, folk-pop, Master 1080p] Polarnik 13269215261.24 GB 0 0 1379406604

11:30

17-Сен-13

Фольклор, Народная и Этническая музыка (video) ·· Taylor Swift - Live On The Seine (Concert In Paris, France) January 19, 2013 [Country pop, Electropop, Bubblegum pop, Country rock, HDTVRip 1080p] Polarnik 27907153922.6 GB 0 0 1379365208

00:00

17-Сен-13

Rap, Hip-Hop, R'n'B (video) ·· B.o.B & Taylor Swift - Both Of Us (MUCHHD) [2012, Pop rap, country pop, conscious hip hop, HDTV 1080i] Galfimbul 312749092298 MB 0 0 1362011820

03:37

28-Фев-13

Фольклор, Народная и Этническая музыка (video) ·· Taylor Swift - You Belong With Me (Palladia) [2009, Country pop, HDTV 1080i] Galfimbul 243166333232 MB 0 0 1361798628

16:23

25-Фев-13

Фольклор, Народная и Этническая музыка (video) ·· Taylor Swift - Live at iHeartRadio Music Festival 2012 [2012 г., Pop, HDTV (Feed)] Galfimbul 82110084767.65 GB 0 0 1361798608

16:23

25-Фев-13

Фольклор, Народная и Этническая музыка (video) ·· Taylor Swift - We Are Never Ever Getting Back Together (MTV First Look) [2012, Pop, bubblegum pop, HDTV 1080i] Galfimbul 415341444396 MB 0 0 1361798596

16:23

25-Фев-13

Фольклор, Народная и Этническая музыка (video) ·· Taylor Swift - We Are Never Ever Getting Back Together (The X Factor UK) October 14, 2012 [Bubblegum pop, HDTV 1080i] Galfimbul 314981968300 MB 0 0 1361798592

16:23

25-Фев-13

Фольклор, Народная и Этническая музыка (video) ·· Taylor Swift - We Are Never Ever Getting Back Together (Live @ MTV VMA) September 6, 2012 [Pop, HDTV 1080i] Galfimbul 12095891801.13 GB 0 0 1361798588

16:23

25-Фев-13

Фольклор, Народная и Этническая музыка (video) ·· Taylor Swift - We Are Never Ever Getting Back Together (Dancing With The Stars) October 30, 2012 [Pop, HDTV 720p] Galfimbul 351233256335 MB 0 0 1361798584

16:23

25-Фев-13

Фольклор, Народная и Этническая музыка (video) ·· Taylor Swift - We Are Never Ever Getting Back Together (Live @ Katie Couric) October 26, 2012 [2012, Country pop, HDTV 1080i] Galfimbul 469148736447 MB 0 0 1361798580

16:23

25-Фев-13

Фольклор, Народная и Этническая музыка (video) ·· Taylor Swift - I Knew You Were Trouble (AMA 2012) [2012, Pop, HDTVRip 720p] Galfimbul 220144658210 MB 0 0 1361798569

16:22

25-Фев-13

Фольклор, Народная и Этническая музыка (video) ·· Taylor Swift - VH1 Storytellers (11.11.2012) [2012, Country, Country Pop, HDTV 1080i] Galfimbul 51894335604.83 GB 0 0 1361798565

16:22

25-Фев-13

Фольклор, Народная и Этническая музыка (video) ·· Taylor Swift - Begin Again (46th Annual CMA Awards) November 01, 2012 [Country, HDTV 720p] Galfimbul 369370744352 MB 0 0 1361798561

16:22

25-Фев-13

Фольклор, Народная и Этническая музыка (video) ·· Taylor Swift - Red (The Late Show with David Letterman) October 23, 2012 [Country pop, pop rock, HDTV 1080i] Galfimbul 539825832515 MB 0 0 1361798557

16:22

25-Фев-13

Фольклор, Народная и Этническая музыка (video) ·· Taylor Swift - State Of Grace (The X Factor US) November 15, 2012 [Arena rock, alternative rock, HDTV 720p] Galfimbul 273305776261 MB 0 0 1361798505

16:21

25-Фев-13

Фольклор, Народная и Этническая музыка (video) ·· Taylor Swift - Ronan (Stand Up To Cancer) September 7, 2012 [Country folk, HDTV 1080i] Galfimbul 12333841521.15 GB 0 0 1361798496

16:21

25-Фев-13

Фольклор, Народная и Этническая музыка (video) ·· Taylor Swift - Love Story (Live @ Good Morning America) November 10, 2008 [Country pop, HDTV 720p] Galfimbul 377891092360 MB 0 0 1361798480

16:21

25-Фев-13

Фольклор, Народная и Этническая музыка (video) ·· Taylor Swift - Mean (The 54th Annual Grammy Awards) February 12, 2012 [Country, HDTV 720p] Galfimbul 334579476319 MB 0 0 1361798453

16:20

25-Фев-13

Фольклор, Народная и Этническая музыка (video) ·· Taylor Swift - White Horse (Palladia) [2008, Country pop, HDTV 1080i] Galfimbul 434383588414 MB 0 0 1361798418

16:20

25-Фев-13

Еще никто не оставлял запись к записи скачать торрент Taylor Swift . Будь первым!

!Обратная связь