Скачать через торрент музыку Taylor Swift - We Are Never Ever Getting Back Together бесплатно без регистрации torrent

Если у вас наблюдаются проблемы со скриншотами, переходом по ссылками, скачиванием торрентов - проблемы в блокировщике рекламы AdBlock. #хорошегоДня!


Статистика раздачи
Размер:  335 MB   |    Зарегистрирован:  4 года 8 месяцев   |    .torrent скачан:  45 раз   |   
Раздают:  1  
   
Загрузка...
 
Автор Сообщение

Galfimbul

avatar Galfimbul


Taylor Swift - We Are Never Ever Getting Back Together (Dancing With The Stars) October 30, 2012

Жанр: Pop
Продолжительность: 03:18
Год выпуска: 2012

Качество: HDTV 720p
Контейнер: TS

Видео: MPEG2 1280x720 16:9 13.1 Mbps 59.940 fps
Аудио: AC3 384 Kbps 6 channels 48.0 KHz
GeneralID : 1 (0x1)Complete name : D:\Taylor Swift - We Are Never Ever Getting Back Together (Dancing With The Stars All-Stars 10.30.2012).tsFormat : MPEG-TSFile size : 335 MiBDuration : 3mn 18sOverall bit rate : 14.2 Mbps

VideoID : 640 (0x280)Menu ID : 1 (0x1)Format : MPEG VideoFormat version : Version 2Format profile : Main@HighFormat settings, BVOP : YesFormat settings, Matrix : DefaultFormat settings, GOP : M=3, N=30Codec ID : 2Duration : 3mn 17sBit rate mode : VariableBit rate : 13.1 MbpsNominal bit rate : 38.8 MbpsWidth : 1 280 pixelsHeight : 720 pixelsDisplay aspect ratio : 16:9ActiveFormatDescription : Full frame 16:9 imageFrame rate : 59.940 fpsStandard : ComponentColor space : YUVChroma subsampling : 4:2:0Bit depth : 8 bitsScan type : ProgressiveCompression mode : LossyBits/(Pixel*Frame) : 0.237Stream size : 308 MiB (92%)

AudioID : 638 (0x27E)Menu ID : 1 (0x1)Format : AC-3Format/Info : Audio Coding 3Mode extension : CM (complete main)Codec ID : 129Duration : 3mn 18sBit rate mode : ConstantBit rate : 384 KbpsChannel(s) : 6 channelsChannel positions : Front: L C R, Side: L R, LFESampling rate : 48.0 KHzBit depth : 16 bitsCompression mode : LossyDelay relative to video : -382msStream size : 9.07 MiB (3%)Language : English

Text #1ID : 640 (0x280)608-1Menu ID : 1 (0x1)Format : EIA-608Muxing mode : A/53 / DTVCC TransportMuxing mode, more info : Muxed in Video #1Duration : 3mn 17sStream size : 0.00 Byte (0%)

Text #2ID : 640 (0x280)1Menu ID : 1 (0x1)Format : EIA-708Muxing mode : A/53 / DTVCC TransportMuxing mode, more info : Muxed in Video #1Duration : 3mn 17sStream size : 0.00 Byte (0%)


Трекер:  [ 20-Мар-2013 16:58 ]

  

Скачать .torrent

Размер .torrent файла 13 KB


Размер: 335 MB
Хэш (hash) релиза: 186a5736a827019cb65c04a7990b4a084383fa08

Торренты, похожие на Taylor Swift - We Are Never Ever Getting Back Together скачать торрент

Форум Название Автор Размер S L Добавлен
Фольклор, Народная и Этническая музыка (video) ·· Taylor Swift - We Are Never Ever Getting Back Together (MTV First Look) [2012, Pop, bubblegum pop, HDTV 1080i] Galfimbul 415341444396 MB 0 0 1361798596

16:23

25-Фев-13

Фольклор, Народная и Этническая музыка (video) ·· Taylor Swift - We Are Never Ever Getting Back Together (The X Factor UK) October 14, 2012 [Bubblegum pop, HDTV 1080i] Galfimbul 314981968300 MB 0 0 1361798592

16:23

25-Фев-13

Фольклор, Народная и Этническая музыка (video) ·· Taylor Swift - We Are Never Ever Getting Back Together (Live @ MTV VMA) September 6, 2012 [Pop, HDTV 1080i] Galfimbul 12095891801.13 GB 0 0 1361798588

16:23

25-Фев-13

Фольклор, Народная и Этническая музыка (video) ·· Taylor Swift - We Are Never Ever Getting Back Together (Live @ Katie Couric) October 26, 2012 [2012, Country pop, HDTV 1080i] Galfimbul 469148736447 MB 0 0 1361798580

16:23

25-Фев-13

Фольклор, Народная и Этническая музыка (video) ·· Taylor Swift - We Are Never Ever Getting Back Together (VH1) [2012, Pop, HDTVRip 1080p] Galfimbul 312726412298 MB 0 0 1361798373

16:19

25-Фев-13

Фольклор, Народная и Этническая музыка (video) ·· Taylor Swift - We Are Never Ever Getting Back Together (VA - NRJ Music Awards 2013. Live,TF [2013, Country, Pop, HDTV 1080i] Galfimbul 177020579169 MB 0 0 1361798298

16:18

25-Фев-13

Фольклор, Народная и Этническая музыка (video) ·· Taylor Swift - We Are Never Ever Getting Back Together( Live,Canal+,Le grand journal, la suite,28.01.2013) [2013, pop,country pop, HDTV 1080i] Galfimbul 369276368352 MB 0 0 1361798275

16:17

25-Фев-13

Фольклор, Народная и Этническая музыка (video) ·· Taylor Swift - We Are Never Ever Getting Back Together (Live @ SMAP×SMAP) January 21, 2013 [Pop, bubblegum pop, HDTV 1080i] Galfimbul 304296800290 MB 0 0 1361798266

16:17

25-Фев-13

Фольклор, Народная и Этническая музыка (video) ·· Taylor Swift - We Are Never Ever Getting Back Together (The 55th Annual Grammy Awards) February 10, 2013 [Bubblegum pop, HDTV 1080i] Galfimbul 18415545641.72 GB 0 0 1361798195

16:16

25-Фев-13

Еще никто не оставлял запись к записи скачать торрент Taylor Swift - We Are Never Ever Getting Back Together . Будь первым!

!Обратная связь