Скачать через торрент музыку Taylor Swift - Live at iHeartRadio Music Festival 2012 бесплатно без регистрации torrent

Если у вас наблюдаются проблемы со скриншотами, переходом по ссылками, скачиванием торрентов - проблемы в блокировщике рекламы AdBlock. #хорошегоДня!


Статистика раздачи
Размер:  7.65 GB   |    Зарегистрирован:  4 года 8 месяцев   |    .torrent скачан:  53 раза   |   
Раздают:  1  
   
Загрузка...
 
Автор Сообщение

Galfimbul

avatar Galfimbul


Taylor Swift - Live at iHeartRadio Music Festival 2012
Год выпуска: 2012
Жанр: Country, Pop
Продолжительность: 00:30:02
Описание: Выступление Taylor Swift на фестивале iHeartRadio Music Festival 2012.
Треклист:
01. Sparks Fly
02. You Belong With Me
03. Mean
04. Love Story
05. We Are Never Ever Getting Back Together
Качество: HDTV (Feed)
Формат: TS
Видео кодек: H.264
Аудио кодек: MP2
Видео: 1920x1080 (16:9) at 29.970 fps, ~34.76 Mbps avg
Аудио: MPEG Audio 2.0 (48 kHz / 384 kbps)
GeneralID : 1 (0x1)Complete name : Taylor Swift - iHeartRadio Music Festival 2012 1080i HDTV 35 Mbps MPA2.0 H.264-TrollHD.tsFormat : MPEG-TSFile size : 7.65 GiBDuration : 30mn 2sOverall bit rate : 36.4 Mbps

VideoID : 308 (0x134)Menu ID : 1 (0x1)Format : AVCFormat/Info : Advanced Video CodecFormat profile : High@L4.1Format settings, CABAC : YesFormat settings, ReFrames : 4 framesCodec ID : 27Duration : 30mn 2sBit rate : 33.9 MbpsWidth : 1 920 pixelsHeight : 1 080 pixelsDisplay aspect ratio : 16:9Frame rate : 29.970 fpsColor space : YUVChroma subsampling : 4:2:0Bit depth : 8 bitsScan type : InterlacedScan order : Top Field FirstBits/(Pixel*Frame) : 0.545Stream size : 7.11 GiB (93%)Color primaries : BT.709-5, BT.1361, IEC 61966-2-4, SMPTE RP177Transfer characteristics : BT.709-5, BT.1361Matrix coefficients : BT.709-5, BT.1361, IEC 61966-2-4 709, SMPTE RP177

Audio #1ID : 256 (0x100)Menu ID : 1 (0x1)Format : MPEG AudioFormat version : Version 1Format profile : Layer 2Codec ID : 3Duration : 30mn 2sBit rate mode : ConstantBit rate : 384 KbpsChannel(s) : 2 channelsSampling rate : 48.0 KHzCompression mode : LossyDelay relative to video : -33msStream size : 82.5 MiB (1%)Language : English

Audio #2ID : 257 (0x101)Menu ID : 1 (0x1)Format : MPEG AudioFormat version : Version 1Format profile : Layer 2Codec ID : 3Duration : 30mn 2sBit rate mode : ConstantBit rate : 384 KbpsChannel(s) : 2 channelsSampling rate : 48.0 KHzCompression mode : LossyDelay relative to video : -33msStream size : 82.5 MiB (1%)Language : English
Sequence Frame 54033(0-X) / Time 0:30:02 :Info: End of H.264 sequence

Sequence Summary:

File Size Processed: 7.65 GB, Play Time: 00h:30m:02s29.98 FPS (Average), 34.76 Mbps (Average).MPEG Audio.0 of 0 audio frames found with errors.0.000000 seconds of audio timestamp gaps.

End of Log


Трекер:  [ 20-Мар-2013 16:58 ]

  

Скачать .torrent

Размер .torrent файла 38 KB


Размер: 7.65 GB
Хэш (hash) релиза: 36a276041290831e186fb87342a7d57af6956227

Еще никто не оставлял запись к записи скачать торрент Taylor Swift - Live at iHeartRadio Music Festival 2012 . Будь первым!

!Обратная связь