Скачать через торрент музыку The Secret Sisters with Elvis Costello and Jakob Dylan бесплатно без регистрации torrent

Если у вас наблюдаются проблемы со скриншотами, переходом по ссылками, скачиванием торрентов - проблемы в блокировщике рекламы AdBlock. #хорошегоДня!


Статистика раздачи
Размер:  5.46 GB   |    Зарегистрирован:  4 года 8 месяцев   |    .torrent скачан:  45 раз   |   
Раздают:  1  
   
Загрузка...
 
Автор Сообщение

Galfimbul

avatar Galfimbul


The Secret Sisters
with
Elvis Costello and Jakob Dylan

Жанр: Neotraditional country
Продолжительность: 54:33
Год выпуска: 2012

Описание: The Music Box Theater
Los Angeles, CA
Recorded September 1, 2010
Broadcast on PBS-TV in HD on April 15, 2012

Laura Rodgers - vocals
Lydia Rodgers - vocals
Jackson Smith - guitar
Chris Powell - drums
Tony Harrell - piano
Dennis Crouch - bass
Russ Pahl - pedal steel guitar
T-Bone Burnett - guitar
Elvis Costello - guitar, vocals
Jakob Dylan - guitar, vocals
01 Tennessee Me
02 Why Baby Why
03 The One I Love Is Gone
04 My Heart Skips A Beat
05 Something Stupid
06 I've Got A Feeling
07 Nothing But The Whole Wide World w/Jakob Dylan
08 Ring Of Fire
09 Leavin' On Your Mind
10 Tonight You Belong To Me
11 All About You
12 Waste The Day
13 A Slow Drag With Josephine w/Elvis Costello
14 Why Don't You Love Me w/Elvis Costello
15 House Of Gold
16 Big River w/Elvis Costello and Jakob Dylan


Качество: HDTV 1080i
Контейнер: MKV
Меню: разбивка по трекам
Видео кодек: MPEG2
Аудио кодек: AC3
Видео: MPEG, 1920x1080, 13,4 mbps, 29,970 fps
Аудио: AC3, 384 kbps, 48 kHz, 6 ch
Аудио 2: MP2, 256 kbps, 48 kHz, 2 ch

Уникальный идентификатор : 187660778993727375638890883812984686421 (0x8D2E26BFDD11C24EB6F242227FB10755)Полное имя : C:\MKV\The Secret Sisters with Elvis Costello and Jakob Dylan [HDTV 1080i].mkvФормат : MatroskaВерсия формата : Version 2Размер файла : 5,46 ГбайтПродолжительность : 54 м.Режим общего битрейта : ПеременныйОбщий поток : 14,3 Мбит/секДата кодирования : UTC 2012-09-08 12:15:30Программа кодирования : mkvmerge v5.8.0 ('No Sleep / Pillow') built on Sep 2 2012 15:37:04Библиотека кодирования : libebml v1.2.3 + libmatroska v1.3.0

ВидеоИдентификатор : 1Формат : MPEG VideoВерсия формата : Version 2Профиль формата : Main@HighПараметр BVOP формата : НетПараметр матрицы формата : ВыборочнаяИдентификатор кодека : V_MPEG2Идентификатор кодека/Информация : MPEG 1 or 2 VideoПродолжительность : 54 м.Вид битрейта : ПеременныйБитрейт : 13,4 Мбит/секМаксимальный битрейт : 65,0 Мбит/секШирина : 1920 пикселейВысота : 1080 пикселейСоотношение сторон : 16:9Режим частоты кадров : ПостоянныйЧастота кадров : 29,970 кадров/секЦветовое пространство : YUVСубдискретизация насыщенности : 4:2:0Битовая глубина : 8 битТип развёртки : ЧересстрочнаяПорядок развёртки : Верхнее поле первоеМетод сжатия : С потерямиБит/(Пиксели*Кадры) : 0.215Размер потока : 5,10 Гбайт (94%)Язык : EnglishDefault : ДаForced : Нет

Аудио #1Идентификатор : 2Формат : AC-3Формат/Информация : Audio Coding 3Расширение режима : CM (complete main)Параметр Endianness формата : BigИдентификатор кодека : A_AC3Продолжительность : 54 м.Вид битрейта : ПостоянныйБитрейт : 384 Кбит/секКаналы : 6 каналовРасположение каналов : Front: L C R, Side: L R, LFEЧастота : 48,0 КГцБитовая глубина : 16 битМетод сжатия : С потерямиРазмер потока : 150 Мбайт (3%)Заголовок : AC3 6chЯзык : EnglishDefault : ДаForced : Нет

Аудио #2Идентификатор : 3Формат : MPEG AudioВерсия формата : Version 1Профиль формата : Layer 2Идентификатор кодека : A_MPEG/L2Идентификатор кодека/Подсказка : MP2Продолжительность : 54 м.Вид битрейта : ПостоянныйБитрейт : 256 Кбит/секКаналы : 2 каналаЧастота : 48,0 КГцМетод сжатия : С потерямиРазмер потока : 99,9 Мбайт (2%)Заголовок : MP2 2chЯзык : EnglishDefault : НетForced : Нет

Меню00:00:00.000 : Tennessee Me00:03:24.000 : Why Baby Why00:06:04.000 : The One I Love Is Gone00:10:16.000 : My Heart Skips A Beat Something Stupid00:12:36.000 : Something Stupid00:15:22.000 : I've Got A Feeling00:17:53.000 : Nothing But The Whole Wide World w/Jakob Dylan00:22:48.000 : Ring Of Fire00:26:16.000 : Leavin' On Your Mind00:28:31.000 : Tonight You Belong To Me00:31:17.000 : All About You00:34:26.000 : Waste The Day00:37:24.000 : A Slow Drag With Josephine w/Elvis Costello00:42:11.000 : Why Don't You Love Me w/Elvis Costello00:45:10.000 : House Of Gold00:48:23.000 : Big River w/Elvis Costello and Jakob Dylan


Трекер:  [ 20-Мар-2013 16:58 ]

  

Скачать .torrent

Размер .torrent файла 27 KB


Размер: 5.46 GB
Хэш (hash) релиза: df70301722975dc22454fcc38835a01369de8eb4

Еще никто не оставлял запись к записи скачать торрент The Secret Sisters with Elvis Costello and Jakob Dylan . Будь первым!

!Обратная связь