Скачать через торрент музыку Сумерки. Сага: Затмение The Twilight Saga: Eclipse - 2010, FLAC бесплатно без регистрации torrent

Если у вас наблюдаются проблемы со скриншотами, переходом по ссылками, скачиванием торрентов - проблемы в блокировщике рекламы AdBlock. #хорошегоДня!


Статистика раздачи
Размер:  523 MB   |    Зарегистрирован:  6 лет 11 месяцев   |    .torrent скачан:  71 раз   |   
Раздают:  1  
   
Загрузка...
 
Автор Сообщение

AqvaGen


Сумерки. Сага: Затмение / The Twilight Saga: Eclipse

Жанр: Soundtrack
Год выпуска диска / фильма: 2010
Страна-производитель диска: Россия
Издатель (лейбл): Warner Music
Номер по каталогу: 4690355000570
Аудио кодек: FLAC (*.flac)
Тип рипа: image+.cue
Битрейт аудио: lossless
Продолжительность: 00:59:40
Наличие сканов в содержимом раздачи: да

Треклист:
01. Metric – Eclipse (All Yours)
02. MUSE - Neutron Star Collision (Love Is Forever)
03. The Bravery – Ours
04. Florence + The Machine – Heavy In Your Arms
05. Sia – My Love
06. Fanfarlo – Atlas
07. The Black Keys – Chop And Change
08. The Dead Weather – Rolling In On A Burning Tire
09. Beck and Bat For Lashes – Let's Get Lost
10. Vampire Weekend – Jonathan Low
11. UNKLE - With You In My Head (Feat. The Black Angels)
12. Eastern Conference Champions – A Million Miles An Hour
13. Band of Horses – Life On Earth
14. Cee Lo Green – What Part of Forever
15. Howard Shore – Jacob's Theme
 
Exact Audio Copy V0.99 prebeta 5 from 4. May 2009

Отчёт EAC об извлечении, выполненном 28. сентября 2010, 21:12

Various / The Twilight Saga: Eclipse

Дисковод: ASUS DRW-24B1LT Adapter: 1 ID: 0

Режим чтения : ДостоверностьИспользование точного потока : ДаОтключение кэша аудио : ДаИспользование указателей C2 : Нет

Коррекция смещения при чтении : 6Способность читать области Lead-in и Lead-out : НетЗаполнение пропущенных сэмплов тишиной : ДаУдаление блоков с тишиной в начале и конце : НетПри вычислениях CRC использовались нулевые сэмплы : ДаИнтерфейс : Установленный внешний ASPI-интерфейс

Выходной формат : Пользовательский кодировщикВыбранный битрейт : 1024 kBit/sКачество : ВысокийДобавление ID3-тэга : НетУтилита сжатия : C:\Program Files (x86)\Exact Audio Copy\Flac\flac.exeДополнительные параметры : -8 -V %s

TOC извлечённого CD

Трек | Старт | Длительность | Начальный сектор | Конечный сектор --------------------------------------------------------------------- 1 | 0:00.00 | 3:45.20 | 0 | 16894 2 | 3:45.20 | 3:50.52 | 16895 | 34196 3 | 7:35.72 | 3:47.73 | 34197 | 51294 4 | 11:23.70 | 4:45.30 | 51295 | 72699 5 | 16:09.25 | 5:11.20 | 72700 | 96044 6 | 21:20.45 | 3:27.15 | 96045 | 111584 7 | 24:47.60 | 2:25.37 | 111585 | 122496 8 | 27:13.22 | 3:54.10 | 122497 | 140056 9 | 31:07.32 | 4:10.15 | 140057 | 158821 10 | 35:17.47 | 3:33.05 | 158822 | 174801 11 | 38:50.52 | 4:43.60 | 174802 | 196086 12 | 43:34.37 | 4:07.35 | 196087 | 214646 13 | 47:41.72 | 5:32.15 | 214647 | 239561 14 | 53:14.12 | 3:58.48 | 239562 | 257459 15 | 57:12.60 | 2:27.67 | 257460 | 268551

Характеристики диапазона извлечения и сообщения об ошибках

Выбранный диапазон

Имя файла E:\!Music\!Lossless\VA - The Twilight Saga Eclipse\Various - The Twilight Saga Eclipse.wav

Пиковый уровень 99.8 % Качество диапазона 100.0 % CRC теста BA35D2C3 CRC копии BA35D2C3 Копирование... OK

Ошибок не произошло

AccurateRip: сводка

Трек 1 точность не определена (достоверность 1) [1E2AF83D], AccurateRip вернул [86B0EC66]Трек 2 точность не определена (достоверность 1) [7DCF3CE2], AccurateRip вернул [FCC889EC]Трек 3 точность не определена (достоверность 1) [DBAD9609], AccurateRip вернул [35B76910]Трек 4 точность не определена (достоверность 1) [242A8C30], AccurateRip вернул [D1434AD9]Трек 5 точность не определена (достоверность 1) [BC224FD0], AccurateRip вернул [65A581F5]Трек 6 точность не определена (достоверность 1) [E73E812D], AccurateRip вернул [1D4246BF]Трек 7 точность не определена (достоверность 1) [A87A1C80], AccurateRip вернул [8382026F]Трек 8 точность не определена (достоверность 2) [6E3EE90A], AccurateRip вернул [776C488C]Трек 9 точность не определена (достоверность 2) [3E827DAB], AccurateRip вернул [743E39C8]Трек 10 точность не определена (достоверность 2) [A1C36C43], AccurateRip вернул [4CD557BC]Трек 11 точность не определена (достоверность 2) [4DB9939D], AccurateRip вернул [5FD864C9]Трек 12 точность не определена (достоверность 2) [C0D45B3B], AccurateRip вернул [8546F765]Трек 13 точность не определена (достоверность 2) [0A461A5C], AccurateRip вернул [D8114FD1]Трек 14 точность не определена (достоверность 2) [F24F55AC], AccurateRip вернул [46DD40A9]Трек 15 точность не определена (достоверность 2) [FD4ED1E0], AccurateRip вернул [B895275D]

Ни один трек не прошёл проверки на точностьВ вашей базе может быть иной вариант штамповки диска

Конец отчёта
 
REM GENRE SoundtrackREM DATE 2010REM DISCID E50DFC0FREM COMMENT "ExactAudioCopy v0.99pb5"PERFORMER "Various"TITLE "The Twilight Saga: Eclipse"FILE "Various - The Twilight Saga Eclipse.flac" WAVE TRACK 01 AUDIO TITLE "Eclipse (All Yours)" PERFORMER "Metric" INDEX 01 00:00:00 TRACK 02 AUDIO TITLE "Neutron Star Collision (Love Is Forever)" PERFORMER "Muse" INDEX 01 03:45:20 TRACK 03 AUDIO TITLE "Ours" PERFORMER "The Bravery" INDEX 00 07:35:45 INDEX 01 07:35:72 TRACK 04 AUDIO TITLE "Heavy In Your Arms" PERFORMER "Florence + The Machine" INDEX 01 11:23:70 TRACK 05 AUDIO TITLE "My Love" PERFORMER "Sia" INDEX 00 16:08:32 INDEX 01 16:09:25 TRACK 06 AUDIO TITLE "Atlas" PERFORMER "Fanfarlo" INDEX 00 21:20:22 INDEX 01 21:20:45 TRACK 07 AUDIO TITLE "Chop And Change" PERFORMER "The Black Keys" INDEX 01 24:47:60 TRACK 08 AUDIO TITLE "Rolling In On A Burning Tire" PERFORMER "The Dead Weather" INDEX 00 27:12:72 INDEX 01 27:13:22 TRACK 09 AUDIO TITLE "Let's Get Lost" PERFORMER "Beck and Bat For Lashes" INDEX 00 31:07:07 INDEX 01 31:07:32 TRACK 10 AUDIO TITLE "Jonathan Low" PERFORMER "Vampire Weekend" INDEX 00 35:17:45 INDEX 01 35:17:47 TRACK 11 AUDIO TITLE "With You In My Head (Feat. The Black Angels)" PERFORMER "UNKLE" INDEX 00 38:50:15 INDEX 01 38:50:52 TRACK 12 AUDIO TITLE "A Million Miles An Hour" PERFORMER "Eastern Conference Champions" INDEX 01 43:34:37 TRACK 13 AUDIO TITLE "Life On Earth" PERFORMER "Band of Horses" INDEX 00 47:41:47 INDEX 01 47:41:72 TRACK 14 AUDIO TITLE "What Part of Forever" PERFORMER "Cee Lo Green" INDEX 00 53:12:30 INDEX 01 53:14:12 TRACK 15 AUDIO TITLE "Jacob's Theme" PERFORMER "Howard Shore" INDEX 00 57:11:30 INDEX 01 57:12:60


Трекер:  [ 19-Дек-2010 14:51 ]

  

Скачать .torrent

Размер .torrent файла 11 KB


Размер: 523 MB
Хэш (hash) релиза: 35964245fd17a41d0c68591fe58f663800514bbb

bot

Топик был перенесен в форум Саундтреки к фильмам и мультфильмам (lossless)

Перенес AqvaGen

Хотите добавить комментарий к записи скачать торрент Сумерки. Сага: Затмение The Twilight Saga: Eclipse - 2010, FLAC

!Обратная связь