Скачать через торрент музыку Тёмный рыцарь The Dark Knight бесплатно без регистрации torrent

Если у вас наблюдаются проблемы со скриншотами, переходом по ссылками, скачиванием торрентов - проблемы в блокировщике рекламы AdBlock. #хорошегоДня!


Статистика раздачи
Размер:  703 MB   |    Зарегистрирован:  6 лет 11 месяцев   |    .torrent скачан:  79 раз   |   
Раздают:  1  
   
Загрузка...
 
Автор Сообщение

AqvaGen


Тёмный рыцарь / The Dark Knight [Special Edition]

Жанр: Score || Композитор: Hans Zimmer & James Newton Howard || Год: 2008 || Страна: USA || Аудио кодек: FLAC || Тип рипа: tracks+.cue || Битрейт аудио: lossless
Продолжительность: 01:13:35+01:12:50

Disc 1:
01 - Why So Serious? (09:14)
02 - I'm Not A Hero (06:35)
03 - Harvey Two-Face (06:17)
04 - Aggressive Expansion (04:36)
05 - Always A Catch (01:40)
06 - Blood On My Hands (02:17)
07 - A Little Push (02:43)
08 - Like A Dog Chasing Cars (05:03)
09 - I Am The Batman (02:00)
10 - And I Thought My Jokes Were Bad (02:29)
11 - Agent Of Chaos (06:55)
12 - Introduce A Little Anarchy (03:43)
13 - Watch The World Burn (03:48)
14 - A Dark Knight (16:15)

Disc 2:
01 - Bank Robbery (Prologue) (05:24)
02 - Buyer Beware (02:56)
03 - Halfway to Hong Kong (03:43)
04 - Decent Men in an Indecent Time (02:51)
05 - You're Gonna Love Me (04:51)
06 - Chance (03:34)
07 - You Complete Me (04:50)
08 - The Ferries (09:57)
09 - We Are Tonight's Entertainment (05:37)
10 - A Watchful Guardian (06:45)
11 - Why So Serious? (The Crystal Method Remix) (05:30)
12 - Poor Choice of Words (The Paul Van Dyk Remix) (06:15)
13 - Gunpowder and Gasoline (Mel Wesson Remix) (04:34)
14 - Rory's First Kiss (Ryeland Allison Remix) (06:04)

 
Exact Audio Copy V0.99 prebeta 4 from 23. January 2008

EAC extraction logfile from 14. May 2009, 17:05

Hans Zimmer & James Newton Howard / The Dark Knight - The Collectors Edition - CD 1

Used drive : LITE-ON DVD SHD-16P1S Adapter: 0 ID: 0

Read mode : SecureUtilize accurate stream : YesDefeat audio cache : YesMake use of C2 pointers : No

Read offset correction : 6Overread into Lead-In and Lead-Out : NoFill up missing offset samples with silence : YesDelete leading and trailing silent blocks : NoNull samples used in CRC calculations : YesUsed interface : Native Win32 interface for Win NT & 2000Gap handling : Appended to previous track

Used output format : User Defined EncoderSelected bitrate : 320 kBit/sQuality : HighAdd ID3 tag : NoCommand line compressor : C:\Program Files\FLAC\flac.exeAdditional command line options : -V -8 -T "artist=%a" -T "title=%t" -T "album=%g" -T "date=%y" -T "tracknumber=%n" -T "genre=%m" %s

TOC of the extracted CD

Track | Start | Length | Start sector | End sector --------------------------------------------------------- 1 | 0:00.00 | 9:14.02 | 0 | 41551 2 | 9:14.02 | 6:34.73 | 41552 | 71174 3 | 15:49.00 | 6:16.50 | 71175 | 99424 4 | 22:05.50 | 4:36.10 | 99425 | 120134 5 | 26:41.60 | 1:40.27 | 120135 | 127661 6 | 28:22.12 | 2:16.38 | 127662 | 137899 7 | 30:38.50 | 2:43.00 | 137900 | 150124 8 | 33:21.50 | 5:03.25 | 150125 | 172874 9 | 38:25.00 | 2:00.00 | 172875 | 181874 10 | 40:25.00 | 2:29.00 | 181875 | 193049 11 | 42:54.00 | 6:55.22 | 193050 | 224196 12 | 49:49.22 | 3:42.38 | 224197 | 240884 13 | 53:31.60 | 3:48.15 | 240885 | 257999 14 | 57:20.00 | 16:15.20 | 258000 | 331144

Track 1

Filename D:\Musiques\Hans Zimmer & James Newton Howard\The Dark Knight - The Collectors Edition\CD 1\FLAC\01 Why So Serious .wav

Pre-gap length 0:00:02.00

Peak level 97.6 % Track quality 100.0 % Test CRC E5114033 Copy CRC E5114033 Accurately ripped (confidence 34) [1609A4EB] Copy OK

Track 2

Filename D:\Musiques\Hans Zimmer & James Newton Howard\The Dark Knight - The Collectors Edition\CD 1\FLAC\02 I'm Not A Hero.wav

Peak level 97.6 % Track quality 100.0 % Test CRC B272E9CF Copy CRC B272E9CF Accurately ripped (confidence 34) [357FF6BC] Copy OK

Track 3

Filename D:\Musiques\Hans Zimmer & James Newton Howard\The Dark Knight - The Collectors Edition\CD 1\FLAC\03 Harvey Two-Face.wav

Pre-gap length 0:00:00.53

Peak level 97.6 % Track quality 100.0 % Test CRC 50E93B70 Copy CRC 50E93B70 Accurately ripped (confidence 34) [9D5D3FDD] Copy OK

Track 4

Filename D:\Musiques\Hans Zimmer & James Newton Howard\The Dark Knight - The Collectors Edition\CD 1\FLAC\04 Aggressive Expansion.wav

Pre-gap length 0:00:00.70

Peak level 97.6 % Track quality 100.0 % Test CRC 75D3FEBE Copy CRC 75D3FEBE Accurately ripped (confidence 34) [BDD19643] Copy OK

Track 5

Filename D:\Musiques\Hans Zimmer & James Newton Howard\The Dark Knight - The Collectors Edition\CD 1\FLAC\05 Always A Catch.wav

Pre-gap length 0:00:00.73

Peak level 97.6 % Track quality 100.0 % Test CRC 3D2A462C Copy CRC 3D2A462C Accurately ripped (confidence 34) [45850219] Copy OK

Track 6

Filename D:\Musiques\Hans Zimmer & James Newton Howard\The Dark Knight - The Collectors Edition\CD 1\FLAC\06 Blood On My Hands.wav

Pre-gap length 0:00:00.86

Peak level 97.6 % Track quality 100.0 % Test CRC 9AA7F4A2 Copy CRC 9AA7F4A2 Accurately ripped (confidence 34) [E0C57C7E] Copy OK

Track 7

Filename D:\Musiques\Hans Zimmer & James Newton Howard\The Dark Knight - The Collectors Edition\CD 1\FLAC\07 A Little Push.wav

Pre-gap length 0:00:00.57

Peak level 97.6 % Track quality 100.0 % Test CRC 7448DAE2 Copy CRC 7448DAE2 Accurately ripped (confidence 34) [81B398D0] Copy OK

Track 8

Filename D:\Musiques\Hans Zimmer & James Newton Howard\The Dark Knight - The Collectors Edition\CD 1\FLAC\08 Like A Dog Chasing Cars.wav

Pre-gap length 0:00:00.80

Peak level 97.6 % Track quality 100.0 % Test CRC D3873FBF Copy CRC D3873FBF Accurately ripped (confidence 34) [6E6206A9] Copy OK

Track 9

Filename D:\Musiques\Hans Zimmer & James Newton Howard\The Dark Knight - The Collectors Edition\CD 1\FLAC\09 I Am The Batman.wav

Pre-gap length 0:00:00.80

Peak level 97.6 % Track quality 100.0 % Test CRC 3AF3B92D Copy CRC 3AF3B92D Accurately ripped (confidence 34) [483AA24C] Copy OK

Track 10

Filename D:\Musiques\Hans Zimmer & James Newton Howard\The Dark Knight - The Collectors Edition\CD 1\FLAC\10 And I Thought My Jokes Were Bad.wav

Pre-gap length 0:00:00.66

Peak level 97.6 % Track quality 100.0 % Test CRC 239C5EAD Copy CRC 239C5EAD Accurately ripped (confidence 34) [FCABE898] Copy OK

Track 11

Filename D:\Musiques\Hans Zimmer & James Newton Howard\The Dark Knight - The Collectors Edition\CD 1\FLAC\11 Agent Of Chaos.wav

Pre-gap length 0:00:00.66

Peak level 97.6 % Track quality 100.0 % Test CRC F321A8EB Copy CRC F321A8EB Accurately ripped (confidence 35) [C3567900] Copy OK

Track 12

Filename D:\Musiques\Hans Zimmer & James Newton Howard\The Dark Knight - The Collectors Edition\CD 1\FLAC\12 Introduce A Little Anarchy.wav

Peak level 97.6 % Track quality 99.9 % Test CRC 6A35B2A2 Copy CRC 6A35B2A2 Accurately ripped (confidence 34) [79F5DB93] Copy OK

Track 13

Filename D:\Musiques\Hans Zimmer & James Newton Howard\The Dark Knight - The Collectors Edition\CD 1\FLAC\13 Watch The World Burn.wav

Pre-gap length 0:00:00.53

Peak level 97.6 % Track quality 100.0 % Test CRC E990930A Copy CRC E990930A Accurately ripped (confidence 34) [0D7C1522] Copy OK

Track 14

Filename D:\Musiques\Hans Zimmer & James Newton Howard\The Dark Knight - The Collectors Edition\CD 1\FLAC\14 A Dark Knight.wav

Pre-gap length 0:00:00.73

Peak level 97.6 % Track quality 99.9 % Test CRC 21983896 Copy CRC 21983896 Accurately ripped (confidence 31) [2565D8B4] Copy OK

All tracks accurately ripped

No errors occurred

End of status report
 
REM GENRE SoundtrackREM DATE 2008REM DISCID B0113F0EREM COMMENT "ExactAudioCopy v0.99pb4"PERFORMER "Hans Zimmer & James Newton Howard"TITLE "The Dark Knight - The Collectors Edition - CD 1"FILE "01 Why So Serious.wav" WAVE TRACK 01 AUDIO TITLE "Why So Serious?" PERFORMER "Hans Zimmer & James Newton Howard" INDEX 01 00:00:00FILE "02 I'm Not A Hero.wav" WAVE TRACK 02 AUDIO TITLE "I'm Not A Hero" PERFORMER "Hans Zimmer & James Newton Howard" INDEX 01 00:00:00 TRACK 03 AUDIO TITLE "Harvey Two-Face" PERFORMER "Hans Zimmer & James Newton Howard" INDEX 00 06:34:33FILE "03 Harvey Two-Face.wav" WAVE INDEX 01 00:00:00 TRACK 04 AUDIO TITLE "Aggressive Expansion" PERFORMER "Hans Zimmer & James Newton Howard" INDEX 00 06:15:72FILE "04 Aggressive Expansion.wav" WAVE INDEX 01 00:00:00 TRACK 05 AUDIO TITLE "Always A Catch" PERFORMER "Hans Zimmer & James Newton Howard" INDEX 00 04:35:30FILE "05 Always A Catch.wav" WAVE INDEX 01 00:00:00 TRACK 06 AUDIO TITLE "Blood On My Hands" PERFORMER "Hans Zimmer & James Newton Howard" INDEX 00 01:39:37FILE "06 Blood On My Hands.wav" WAVE INDEX 01 00:00:00 TRACK 07 AUDIO TITLE "A Little Push" PERFORMER "Hans Zimmer & James Newton Howard" INDEX 00 02:15:70FILE "07 A Little Push.wav" WAVE INDEX 01 00:00:00 TRACK 08 AUDIO TITLE "Like A Dog Chasing Cars" PERFORMER "Hans Zimmer & James Newton Howard" INDEX 00 02:42:15FILE "08 Like A Dog Chasing Cars.wav" WAVE INDEX 01 00:00:00 TRACK 09 AUDIO TITLE "I Am The Batman" PERFORMER "Hans Zimmer & James Newton Howard" INDEX 00 05:02:40FILE "09 I Am The Batman.wav" WAVE INDEX 01 00:00:00 TRACK 10 AUDIO TITLE "And I Thought My Jokes Were Bad" PERFORMER "Hans Zimmer & James Newton Howard" INDEX 00 01:59:25FILE "10 And I Thought My Jokes Were Bad.wav" WAVE INDEX 01 00:00:00 TRACK 11 AUDIO TITLE "Agent Of Chaos" PERFORMER "Hans Zimmer & James Newton Howard" INDEX 00 02:28:25FILE "11 Agent Of Chaos.wav" WAVE INDEX 01 00:00:00FILE "12 Introduce A Little Anarchy.wav" WAVE TRACK 12 AUDIO TITLE "Introduce A Little Anarchy" PERFORMER "Hans Zimmer & James Newton Howard" INDEX 01 00:00:00 TRACK 13 AUDIO TITLE "Watch The World Burn" PERFORMER "Hans Zimmer & James Newton Howard" INDEX 00 03:41:73FILE "13 Watch The World Burn.wav" WAVE INDEX 01 00:00:00 TRACK 14 AUDIO TITLE "A Dark Knight" PERFORMER "Hans Zimmer & James Newton Howard" INDEX 00 03:47:35FILE "14 A Dark Knight.wav" WAVE INDEX 01 00:00:00
 
Exact Audio Copy V0.99 prebeta 4 from 23. January 2008

EAC extraction logfile from 14. May 2009, 17:36

Hans Zimmer & James Newton Howard / The Dark Knight - The Collectors Edition - CD 2

Used drive : LITE-ON DVD SHD-16P1S Adapter: 0 ID: 0

Read mode : SecureUtilize accurate stream : YesDefeat audio cache : YesMake use of C2 pointers : No

Read offset correction : 6Overread into Lead-In and Lead-Out : NoFill up missing offset samples with silence : YesDelete leading and trailing silent blocks : NoNull samples used in CRC calculations : YesUsed interface : Native Win32 interface for Win NT & 2000Gap handling : Appended to previous track

Used output format : User Defined EncoderSelected bitrate : 320 kBit/sQuality : HighAdd ID3 tag : NoCommand line compressor : C:\Program Files\FLAC\flac.exeAdditional command line options : -V -8 -T "artist=%a" -T "title=%t" -T "album=%g" -T "date=%y" -T "tracknumber=%n" -T "genre=%m" %s

TOC of the extracted CD

Track | Start | Length | Start sector | End sector --------------------------------------------------------- 1 | 0:00.00 | 5:23.40 | 0 | 24264 2 | 5:23.40 | 2:55.57 | 24265 | 37446 3 | 8:19.22 | 3:43.15 | 37447 | 54186 4 | 12:02.37 | 2:50.60 | 54187 | 66996 5 | 14:53.22 | 4:51.03 | 66997 | 88824 6 | 19:44.25 | 3:33.40 | 88825 | 104839 7 | 23:17.65 | 4:50.37 | 104840 | 126626 8 | 28:08.27 | 9:56.73 | 126627 | 171399 9 | 38:05.25 | 5:37.35 | 171400 | 196709 10 | 43:42.60 | 6:45.00 | 196710 | 227084 11 | 50:27.60 | 5:30.15 | 227085 | 251849 12 | 55:58.00 | 6:14.60 | 251850 | 279959 13 | 62:12.60 | 4:33.52 | 279960 | 300486 14 | 66:46.37 | 6:03.65 | 300487 | 327776

Track 1

Filename D:\Musiques\Hans Zimmer & James Newton Howard\The Dark Knight - The Collectors Edition\CD 2\FLAC\01 Bank Robbery (Prologue).wav

Pre-gap length 0:00:02.00

Peak level 97.6 % Track quality 100.0 % Test CRC 5C60DDD5 Copy CRC 5C60DDD5 Accurately ripped (confidence 2) [EE110EA1] Copy OK

Track 2

Filename D:\Musiques\Hans Zimmer & James Newton Howard\The Dark Knight - The Collectors Edition\CD 2\FLAC\02 Buyer Beware.wav

Peak level 97.6 % Track quality 100.0 % Test CRC A0E6FD00 Copy CRC A0E6FD00 Accurately ripped (confidence 2) [FDA5E68D] Copy OK

Track 3

Filename D:\Musiques\Hans Zimmer & James Newton Howard\The Dark Knight - The Collectors Edition\CD 2\FLAC\03 Halfway to Hong Kong.wav

Pre-gap length 0:00:00.13

Peak level 97.6 % Track quality 100.0 % Test CRC 8B775757 Copy CRC 8B775757 Accurately ripped (confidence 2) [15F6858A] Copy OK

Track 4

Filename D:\Musiques\Hans Zimmer & James Newton Howard\The Dark Knight - The Collectors Edition\CD 2\FLAC\04 Decent Men in an Indecent Time.wav

Pre-gap length 0:00:00.53

Peak level 97.6 % Track quality 100.0 % Test CRC 17C36091 Copy CRC 17C36091 Accurately ripped (confidence 2) [3510D266] Copy OK

Track 5

Filename D:\Musiques\Hans Zimmer & James Newton Howard\The Dark Knight - The Collectors Edition\CD 2\FLAC\05 You're Gonna Love Me.wav

Pre-gap length 0:00:00.49

Peak level 97.6 % Track quality 100.0 % Test CRC 842A79D3 Copy CRC 842A79D3 Accurately ripped (confidence 2) [92862AC7] Copy OK

Track 6

Filename D:\Musiques\Hans Zimmer & James Newton Howard\The Dark Knight - The Collectors Edition\CD 2\FLAC\06 Chance.wav

Peak level 97.6 % Track quality 99.9 % Test CRC 15BBF164 Copy CRC 15BBF164 Accurately ripped (confidence 2) [7737B799] Copy OK

Track 7

Filename D:\Musiques\Hans Zimmer & James Newton Howard\The Dark Knight - The Collectors Edition\CD 2\FLAC\07 You Complete Me.wav

Peak level 97.6 % Track quality 100.0 % Test CRC D797CE24 Copy CRC D797CE24 Accurately ripped (confidence 2) [7F9F2E12] Copy OK

Track 8

Filename D:\Musiques\Hans Zimmer & James Newton Howard\The Dark Knight - The Collectors Edition\CD 2\FLAC\08 The Ferries.wav

Pre-gap length 0:00:00.36

Peak level 97.6 % Track quality 100.0 % Test CRC C3746592 Copy CRC C3746592 Accurately ripped (confidence 2) [44B4BAB7] Copy OK

Track 9

Filename D:\Musiques\Hans Zimmer & James Newton Howard\The Dark Knight - The Collectors Edition\CD 2\FLAC\09 We Are Tonight's Entertainment.wav

Peak level 97.6 % Track quality 100.0 % Test CRC 58E1A477 Copy CRC 58E1A477 Accurately ripped (confidence 2) [59D16F78] Copy OK

Track 10

Filename D:\Musiques\Hans Zimmer & James Newton Howard\The Dark Knight - The Collectors Edition\CD 2\FLAC\10 A Watchful Guardian.wav

Peak level 97.8 % Track quality 100.0 % Test CRC B8F793A7 Copy CRC B8F793A7 Accurately ripped (confidence 2) [9AD60ACC] Copy OK

Track 11

Filename D:\Musiques\Hans Zimmer & James Newton Howard\The Dark Knight - The Collectors Edition\CD 2\FLAC\11 Why So Serious (The Crystal Method Remix).wav

Pre-gap length 0:00:02.64

Peak level 97.6 % Track quality 100.0 % Test CRC 81C7A07B Copy CRC 81C7A07B Accurately ripped (confidence 2) [2662FA09] Copy OK

Track 12

Filename D:\Musiques\Hans Zimmer & James Newton Howard\The Dark Knight - The Collectors Edition\CD 2\FLAC\12 Poor Choice of Words (The Paul Van Dyk Remix).wav

Pre-gap length 0:00:01.64

Peak level 97.6 % Track quality 100.0 % Test CRC F8E0C0EC Copy CRC F8E0C0EC Accurately ripped (confidence 2) [58D54093] Copy OK

Track 13

Filename D:\Musiques\Hans Zimmer & James Newton Howard\The Dark Knight - The Collectors Edition\CD 2\FLAC\13 Gunpowder and Gasoline (Mel Wesson Remix).wav

Pre-gap length 0:00:01.57

Peak level 97.6 % Track quality 100.0 % Test CRC 08318CF8 Copy CRC 08318CF8 Accurately ripped (confidence 2) [CD34EF65] Copy OK

Track 14

Filename D:\Musiques\Hans Zimmer & James Newton Howard\The Dark Knight - The Collectors Edition\CD 2\FLAC\14 Rory's First Kiss (Ryeland Allison Remix).wav

Pre-gap length 0:00:01.56

Peak level 97.6 % Track quality 100.0 % Test CRC 467DFB20 Copy CRC 467DFB20 Accurately ripped (confidence 2) [28F60BA7] Copy OK

All tracks accurately ripped

No errors occurred

End of status report
 
REM GENRE SoundtrackREM DATE 2008REM DISCID C311120EREM COMMENT "ExactAudioCopy v0.99pb4"PERFORMER "Hans Zimmer & James Newton Howard"TITLE "The Dark Knight - The Collectors Edition - CD 2"FILE "01 Bank Robbery (Prologue).wav" WAVE TRACK 01 AUDIO TITLE "Bank Robbery (Prologue)" PERFORMER "Hans Zimmer & James Newton Howard" INDEX 01 00:00:00FILE "02 Buyer Beware.wav" WAVE TRACK 02 AUDIO TITLE "Buyer Beware" PERFORMER "Hans Zimmer & James Newton Howard" INDEX 01 00:00:00 TRACK 03 AUDIO TITLE "Halfway to Hong Kong" PERFORMER "Hans Zimmer & James Newton Howard" INDEX 00 02:55:47FILE "03 Halfway to Hong Kong.wav" WAVE INDEX 01 00:00:00 TRACK 04 AUDIO TITLE "Decent Men in an Indecent Time" PERFORMER "Hans Zimmer & James Newton Howard" INDEX 00 03:42:50FILE "04 Decent Men in an Indecent Time.wav" WAVE INDEX 01 00:00:00 TRACK 05 AUDIO TITLE "You're Gonna Love Me" PERFORMER "Hans Zimmer & James Newton Howard" INDEX 00 02:50:23FILE "05 You're Gonna Love Me.wav" WAVE INDEX 01 00:00:00FILE "06 Chance.wav" WAVE TRACK 06 AUDIO TITLE "Chance" PERFORMER "Hans Zimmer & James Newton Howard" INDEX 01 00:00:00FILE "07 You Complete Me.wav" WAVE TRACK 07 AUDIO TITLE "You Complete Me" PERFORMER "Hans Zimmer & James Newton Howard" INDEX 01 00:00:00 TRACK 08 AUDIO TITLE "The Ferries" PERFORMER "Hans Zimmer & James Newton Howard" INDEX 00 04:50:10FILE "08 The Ferries.wav" WAVE INDEX 01 00:00:00FILE "09 We Are Tonight's Entertainment.wav" WAVE TRACK 09 AUDIO TITLE "We Are Tonight's Entertainment" PERFORMER "Hans Zimmer & James Newton Howard" INDEX 01 00:00:00FILE "10 A Watchful Guardian.wav" WAVE TRACK 10 AUDIO TITLE "A Watchful Guardian" PERFORMER "Hans Zimmer & James Newton Howard" INDEX 01 00:00:00 TRACK 11 AUDIO TITLE "Why So Serious? (The Crystal Method Remix)" PERFORMER "Hans Zimmer & James Newton Howard" INDEX 00 06:42:27FILE "11 Why So Serious (The Crystal Method Remix).wav" WAVE INDEX 01 00:00:00 TRACK 12 AUDIO TITLE "Poor Choice of Words (The Paul Van Dyk Remix)" PERFORMER "Hans Zimmer & James Newton Howard" INDEX 00 05:28:42FILE "12 Poor Choice of Words (The Paul Van Dyk Remix).wav" WAVE INDEX 01 00:00:00 TRACK 13 AUDIO TITLE "Gunpowder and Gasoline (Mel Wesson Remix)" PERFORMER "Hans Zimmer & James Newton Howard" INDEX 00 06:13:17FILE "13 Gunpowder and Gasoline (Mel Wesson Remix).wav" WAVE INDEX 01 00:00:00 TRACK 14 AUDIO TITLE "Rory's First Kiss (Ryeland Allison Remix)" PERFORMER "Hans Zimmer & James Newton Howard" INDEX 00 04:32:10FILE "14 Rory's First Kiss (Ryeland Allison Remix).wav" WAVE INDEX 01 00:00:00



Трекер:  [ 19-Дек-2010 14:38 ]

  

Скачать .torrent

Размер .torrent файла 16 KB


Размер: 703 MB
Хэш (hash) релиза: fc3e568310e6d938a1639709ed7402941001c771

Торренты, похожие на Тёмный рыцарь The Dark Knight скачать торрент

Форум Название Автор Размер S L Добавлен
Саундтреки к фильмам и мультфильмам (mp3) ·· (Score) Темный рыцарь / The Dark Knight - 2008, MP3, 320 kbps Phoenix 176670464168 MB 0 0 1296293472

12:31

29-Янв-11

Собственные оцифровки ·· (Score) [LP] [24/96] Тёмный рыцарь / The Dark Knight (by Hans Zimmer & James Newton Howard) - 2008 [FLAC (tracks) lossless] Galfimbul 17323218011.61 GB 0 0 1292268753

22:32

13-Дек-10

Саундтреки ·· (Score) Тёмный Рыцарь: Возрождение Легенды / The Dark Knight Rises (The Ultimate Complete Score) (by Hans Zimmer) - 2012, MP3, 320 kbps Galfimbul 667167244636 MB 0 0 1351331340

12:49

27-Окт-12

Саундтреки к фильмам и мультфильмам (lossless) ·· (Score) Темный рыцарь: Возрождение легенды / The Dark Knight Rises [Deluxe Edition] (by Hans Zimmer) [WEB] [24bit / 192kHz] - 2012, FLAC (tracks), lossless Galfimbul 28585191612.66 GB 0 0 1421318679

13:44

15-Янв-15

Саундтреки ·· (Score) Темный рыцарь: Возрождение легенды / The Dark Knight Rises [Deluxe Edition] (by Hans Zimmer) - 2012, MP3, 320 kbps Galfimbul 175708221168 MB 0 0 1342709220

17:47

19-Июл-12

Саундтреки к фильмам и мультфильмам (lossless) ·· (Score) The Dark Knight / Тёмный рыцарь (composed by Hans Zimmer & James Newton Howard) - 2008, FLAC (image+.cue), HQ Scans, lossless Galfimbul 390305944372 MB 0 0 1292268719

22:31

13-Дек-10

Саундтреки к фильмам и мультфильмам (mp3) ·· (Complete score) The Dark knight / Темный рыцарь - 2008, MP3 (tracks), 320 kbps Galfimbul 252789953241 MB 0 0 1292265875

21:44

13-Дек-10

Саундтреки к фильмам и мультфильмам (mp3) ·· (Score Suite) The Dark Knight / Темный рыцарь (Hans Zimmer & James Newton Howard) - 2008, MP3 (tracks), 320 kbps Galfimbul 5172040549 MB 0 0 1292265769

21:42

13-Дек-10

bot

Топик был перенесен в форум Саундтреки к фильмам и мультфильмам (lossless)

Перенес AqvaGen

Хотите добавить комментарий к записи скачать торрент Тёмный рыцарь The Dark Knight

!Обратная связь