Скачать через торрент музыку VA - Watchmen Хранители - 2009, FLAC бесплатно без регистрации torrent

Если у вас наблюдаются проблемы со скриншотами, переходом по ссылками, скачиванием торрентов - проблемы в блокировщике рекламы AdBlock. #хорошегоДня!


Статистика раздачи
Размер:  318 MB   |    Зарегистрирован:  6 лет 11 месяцев   |    .torrent скачан:  141 раз   |   
Раздают:  1  
   
Загрузка...
 
Автор Сообщение

AqvaGen


Watchmen: Music From The Motion Picture

Жанр: Soundtrack
Дата релиза: 3-Mar-2009
Производитель диска: Reprise/Warner Bros. 516751-2
Аудио кодек: FLAC
Тип рипа: tracks+.cue
Битрейт аудио: ~821 kbps, lossless
Продолжительность: 00:53:43
Трэклист:
01. My Chemical Romance - Desolation Row (03:01)
02. Nat King Cole - Unforgettable (03:28)
03. Bob Dylan - The Times They Are A-Changin' (03:14)
04. Simon And Garfunkel - The Sound Of Silence (03:07)
05. Janis Joplin - Me And Bobby McGee (04:32)
06. K.C. & The Sunshine Band - I'm Your Boogie Man (04:04)
07. Billie Holiday - You're My Thrill (03:25)
08. The Philip Glass Ensemble - Pruit Igoe & Prophecies (08:38)
09. Leonard Cohen - Hallelujah (04:38)
10. Jimi Hendrix - All Along The Watchtower (04:02)
11. Budapest Symphony Orchestra - Ride Of The Valkyries (05:22)
12. Nina Simone - Pirate Jenny (06:39)
 
X Lossless Decoder version 20090217 (101.1)

XLD extraction logfile from 2009-02-27 17:37:20 -0500

Various Artists / Music From The Motion Picture Watchmen

Used drive : HL-DT-ST DVDRW GWA4080M (revision AA26)

Use cdparanoia mode : YES (CDParanoia III 10.2 engine)Disable audio cache : OK for the drive with cache less than 2750KBMake use of C2 pointers : NORead offset correction : 667Max retry count : 100

TOC of the extracted CD Track | Start | Length | Start sector | End sector --------------------------------------------------------- 1 | 00:00:00 | 03:01:07 | 0 | 13581 2 | 03:01:07 | 03:28:29 | 13582 | 29210 3 | 06:29:36 | 03:14:15 | 29211 | 43775 4 | 09:43:51 | 03:07:01 | 43776 | 57801 5 | 12:50:52 | 04:31:60 | 57802 | 78186 6 | 17:22:37 | 04:03:69 | 78187 | 96480 7 | 21:26:31 | 03:24:40 | 96481 | 111820 8 | 24:50:71 | 08:37:69 | 111821 | 150664 9 | 33:28:65 | 04:37:41 | 150665 | 171480 10 | 38:06:31 | 04:01:60 | 171481 | 189615 11 | 42:08:16 | 05:22:09 | 189616 | 213774 12 | 47:30:25 | 06:39:31 | 213775 | 243730

Track 01 Filename : /Users/simontoye/Music/torrent uploads (local)/various artists - music from the motion picture watchmen [flac]/01 My Chemical Romance - Desolation Row.flac

CRC32 hash (test run) : BB9F5B22 CRC32 hash : BB9F5B22 CRC32 hash (skip zero) : 4FABB608 AccurateRip signature : 75C5522C ->Track not present in AccurateRip database. Statistics Read error : 0 Skipped (treated as error) : 0 Edge jitter error (maybe fixed) : 0 Atom jitter error (maybe fixed) : 0 Drift error (maybe fixed) : 0 Dropped bytes error (maybe fixed) : 0 Duplicated bytes error (maybe fixed) : 0 Inconsistency in error sectors : 0

Track 02 Filename : /Users/simontoye/Music/torrent uploads (local)/various artists - music from the motion picture watchmen [flac]/02 Nat King Cole - Unforgettable.flac

CRC32 hash (test run) : F3515658 CRC32 hash : F3515658 CRC32 hash (skip zero) : CB602742 AccurateRip signature : 4F93F378 ->Track not present in AccurateRip database. Statistics Read error : 0 Skipped (treated as error) : 0 Edge jitter error (maybe fixed) : 0 Atom jitter error (maybe fixed) : 0 Drift error (maybe fixed) : 0 Dropped bytes error (maybe fixed) : 0 Duplicated bytes error (maybe fixed) : 0 Inconsistency in error sectors : 0

Track 03 Filename : /Users/simontoye/Music/torrent uploads (local)/various artists - music from the motion picture watchmen [flac]/03 Bob Dylan - The Times They Are A-Changin'.flac

CRC32 hash (test run) : 282D3D0A CRC32 hash : 282D3D0A CRC32 hash (skip zero) : BBECEC48 AccurateRip signature : B6A3D355 ->Track not present in AccurateRip database. Statistics Read error : 0 Skipped (treated as error) : 0 Edge jitter error (maybe fixed) : 0 Atom jitter error (maybe fixed) : 0 Drift error (maybe fixed) : 0 Dropped bytes error (maybe fixed) : 0 Duplicated bytes error (maybe fixed) : 0 Inconsistency in error sectors : 0

Track 04 Filename : /Users/simontoye/Music/torrent uploads (local)/various artists - music from the motion picture watchmen [flac]/04 Simon And Garfunkel - The Sound Of Silence.flac

CRC32 hash (test run) : 22E29BF7 CRC32 hash : 22E29BF7 CRC32 hash (skip zero) : B3D3A49F AccurateRip signature : 2FDF49A4 ->Track not present in AccurateRip database. Statistics Read error : 0 Skipped (treated as error) : 0 Edge jitter error (maybe fixed) : 0 Atom jitter error (maybe fixed) : 0 Drift error (maybe fixed) : 0 Dropped bytes error (maybe fixed) : 0 Duplicated bytes error (maybe fixed) : 0 Inconsistency in error sectors : 0

Track 05 Filename : /Users/simontoye/Music/torrent uploads (local)/various artists - music from the motion picture watchmen [flac]/05 Janis Joplin - Me And Bobby McGee.flac

CRC32 hash (test run) : A24AC320 CRC32 hash : A24AC320 CRC32 hash (skip zero) : 5462B28A AccurateRip signature : 85EC12FA ->Track not present in AccurateRip database. Statistics Read error : 0 Skipped (treated as error) : 0 Edge jitter error (maybe fixed) : 0 Atom jitter error (maybe fixed) : 0 Drift error (maybe fixed) : 0 Dropped bytes error (maybe fixed) : 0 Duplicated bytes error (maybe fixed) : 0 Inconsistency in error sectors : 0

Track 06 Filename : /Users/simontoye/Music/torrent uploads (local)/various artists - music from the motion picture watchmen [flac]/06 K.C. & The Sunshine Band - I'm Your Boogie Man.flac

CRC32 hash (test run) : 1B72568B CRC32 hash : 1B72568B CRC32 hash (skip zero) : 9AB65EA3 AccurateRip signature : C125FDD3 ->Track not present in AccurateRip database. Statistics Read error : 0 Skipped (treated as error) : 0 Edge jitter error (maybe fixed) : 0 Atom jitter error (maybe fixed) : 0 Drift error (maybe fixed) : 0 Dropped bytes error (maybe fixed) : 0 Duplicated bytes error (maybe fixed) : 0 Inconsistency in error sectors : 0

Track 07 Filename : /Users/simontoye/Music/torrent uploads (local)/various artists - music from the motion picture watchmen [flac]/07 Billie Holiday - You're My Thrill.flac

CRC32 hash (test run) : 44A82F1F CRC32 hash : 44A82F1F CRC32 hash (skip zero) : 719E64B5 AccurateRip signature : BA087060 ->Track not present in AccurateRip database. Statistics Read error : 0 Skipped (treated as error) : 0 Edge jitter error (maybe fixed) : 0 Atom jitter error (maybe fixed) : 0 Drift error (maybe fixed) : 0 Dropped bytes error (maybe fixed) : 0 Duplicated bytes error (maybe fixed) : 0 Inconsistency in error sectors : 0

Track 08 Filename : /Users/simontoye/Music/torrent uploads (local)/various artists - music from the motion picture watchmen [flac]/08 The Philip Glass Ensemble - Pruit Igoe & Prophecies.flac

CRC32 hash (test run) : 640C6BE8 CRC32 hash : 640C6BE8 CRC32 hash (skip zero) : 5E8175D9 AccurateRip signature : 05E71E4A ->Track not present in AccurateRip database. Statistics Read error : 0 Skipped (treated as error) : 0 Edge jitter error (maybe fixed) : 0 Atom jitter error (maybe fixed) : 0 Drift error (maybe fixed) : 0 Dropped bytes error (maybe fixed) : 0 Duplicated bytes error (maybe fixed) : 0 Inconsistency in error sectors : 0

Track 09 Filename : /Users/simontoye/Music/torrent uploads (local)/various artists - music from the motion picture watchmen [flac]/09 Leonard Cohen - Hallelujah.flac

CRC32 hash (test run) : C68054A8 CRC32 hash : C68054A8 CRC32 hash (skip zero) : DFB6B568 AccurateRip signature : 8BD898CE ->Track not present in AccurateRip database. Statistics Read error : 0 Skipped (treated as error) : 0 Edge jitter error (maybe fixed) : 0 Atom jitter error (maybe fixed) : 0 Drift error (maybe fixed) : 0 Dropped bytes error (maybe fixed) : 0 Duplicated bytes error (maybe fixed) : 0 Inconsistency in error sectors : 0

Track 10 Filename : /Users/simontoye/Music/torrent uploads (local)/various artists - music from the motion picture watchmen [flac]/10 Jimi Hendrix - All Along The Watchtower.flac

CRC32 hash (test run) : 013CBB00 CRC32 hash : 013CBB00 CRC32 hash (skip zero) : 9287D2C4 AccurateRip signature : CDA6EEF7 ->Track not present in AccurateRip database. Statistics Read error : 0 Skipped (treated as error) : 0 Edge jitter error (maybe fixed) : 0 Atom jitter error (maybe fixed) : 0 Drift error (maybe fixed) : 0 Dropped bytes error (maybe fixed) : 0 Duplicated bytes error (maybe fixed) : 0 Inconsistency in error sectors : 0

Track 11 Filename : /Users/simontoye/Music/torrent uploads (local)/various artists - music from the motion picture watchmen [flac]/11 Budapest Symphony Orchestra - Ride Of The Valkyries.flac

CRC32 hash (test run) : C71C6293 CRC32 hash : C71C6293 CRC32 hash (skip zero) : E7B94837 AccurateRip signature : 6ABCD226 ->Track not present in AccurateRip database. Statistics Read error : 0 Skipped (treated as error) : 0 Edge jitter error (maybe fixed) : 0 Atom jitter error (maybe fixed) : 0 Drift error (maybe fixed) : 0 Dropped bytes error (maybe fixed) : 0 Duplicated bytes error (maybe fixed) : 0 Inconsistency in error sectors : 0

Track 12 Filename : /Users/simontoye/Music/torrent uploads (local)/various artists - music from the motion picture watchmen [flac]/12 Nina Simone - Pirate Jenny.flac

CRC32 hash (test run) : 4B37CE76 CRC32 hash : 4B37CE76 CRC32 hash (skip zero) : CDA58BC3 AccurateRip signature : 5388AD9B ->Track not present in AccurateRip database. Statistics Read error : 0 Skipped (treated as error) : 0 Edge jitter error (maybe fixed) : 0 Atom jitter error (maybe fixed) : 0 Drift error (maybe fixed) : 0 Dropped bytes error (maybe fixed) : 0 Duplicated bytes error (maybe fixed) : 0 Inconsistency in error sectors : 0

No errors occurred

End of status report
 
TITLE "Music From The Motion Picture Watchmen"REM DATE 2009FILE "01 My Chemical Romance - Desolation Row.wav" WAVE TRACK 01 AUDIO TITLE "Desolation Row" PERFORMER "My Chemical Romance" INDEX 01 00:00:00 TRACK 02 AUDIO TITLE "Unforgettable" PERFORMER "Nat King Cole" INDEX 00 02:59:22FILE "02 Nat King Cole - Unforgettable.wav" WAVE INDEX 01 00:00:00 TRACK 03 AUDIO TITLE "The Times They Are A-Changin'" PERFORMER "Bob Dylan" INDEX 00 03:26:67FILE "03 Bob Dylan - The Times They Are A-Changin'.wav" WAVE INDEX 01 00:00:00 TRACK 04 AUDIO TITLE "The Sound Of Silence" PERFORMER "Simon And Garfunkel" INDEX 00 03:12:53FILE "04 Simon And Garfunkel - The Sound Of Silence.wav" WAVE INDEX 01 00:00:00 TRACK 05 AUDIO TITLE "Me And Bobby McGee" PERFORMER "Janis Joplin" INDEX 00 03:05:56FILE "05 Janis Joplin - Me And Bobby McGee.wav" WAVE INDEX 01 00:00:00 TRACK 06 AUDIO TITLE "I'm Your Boogie Man" PERFORMER "K.C. & The Sunshine Band" INDEX 00 04:29:60FILE "06 K.C. & The Sunshine Band - I'm Your Boogie Man.wav" WAVE INDEX 01 00:00:00 TRACK 07 AUDIO TITLE "You're My Thrill" PERFORMER "Billie Holiday" INDEX 00 04:01:69FILE "07 Billie Holiday - You're My Thrill.wav" WAVE INDEX 01 00:00:00 TRACK 08 AUDIO TITLE "Pruit Igoe & Prophecies" PERFORMER "The Philip Glass Ensemble" INDEX 00 03:22:20FILE "08 The Philip Glass Ensemble - Pruit Igoe & Prophecies.wav" WAVE INDEX 01 00:00:00 TRACK 09 AUDIO TITLE "Hallelujah" PERFORMER "Leonard Cohen" INDEX 00 08:35:69FILE "09 Leonard Cohen - Hallelujah.wav" WAVE INDEX 01 00:00:00 TRACK 10 AUDIO TITLE "All Along The Watchtower" PERFORMER "Jimi Hendrix" INDEX 00 04:36:06FILE "10 Jimi Hendrix - All Along The Watchtower.wav" WAVE INDEX 01 00:00:00 TRACK 11 AUDIO TITLE "Ride Of The Valkyries" PERFORMER "Budapest Symphony Orchestra" INDEX 00 03:59:50FILE "11 Budapest Symphony Orchestra - Ride Of The Valkyries.wav" WAVE INDEX 01 00:00:00 TRACK 12 AUDIO TITLE "Pirate Jenny" PERFORMER "Nina Simone" INDEX 00 05:20:10FILE "12 Nina Simone - Pirate Jenny.wav" WAVE INDEX 01 00:00:00
 
AUDIOCHECKER v2.0 beta (build 457) - by Dester - opdester@freemail.hu~~~~~~~~~~~~~~~~~~~~~~~~~~~~~~~~~~-=== DO NOT EDIT THIS FILE! ===-

Path: ...\Various Artists - Watchmen (2009)

01 -=- 01 My Chemical Romance - Desolation Row.flac -=- CDDA (99%)02 -=- 02 Nat King Cole - Unforgettable.flac -=- CDDA (100%)03 -=- 03 Bob Dylan - The Times They Are A-Changin'.flac -=- CDDA (100%)04 -=- 04 Simon And Garfunkel - The Sound Of Silence.flac -=- CDDA (100%)05 -=- 05 Janis Joplin - Me And Bobby McGee.flac -=- CDDA (100%)06 -=- 06 K.C. & The Sunshine Band - I'm Your Boogie Man.flac -=- CDDA (100%)07 -=- 07 Billie Holiday - You're My Thrill.flac -=- CDDA (100%)08 -=- 08 The Philip Glass Ensemble - Pruit Igoe & Prophecies.flac -=- CDDA (100%)09 -=- 09 Leonard Cohen - Hallelujah.flac -=- CDDA (100%)10 -=- 10 Jimi Hendrix - All Along The Watchtower.flac -=- CDDA (100%)11 -=- 11 Budapest Symphony Orchestra - Ride Of The Valkyries.flac -=- CDDA (100%)12 -=- 12 Nina Simone - Pirate Jenny.flac -=- CDDA (43%)

Summary 95,17% CDDA

4317556


Трекер:  [ 19-Дек-2010 15:17 ]

  

Скачать .torrent

Размер .torrent файла 14 KB


Размер: 318 MB
Хэш (hash) релиза: 5ae982a02f1aa5e4e3b8254a747e909847900a01

bot

Топик был перенесен в форум Саундтреки к фильмам и мультфильмам (lossless)

Перенес AqvaGen

Хотите добавить комментарий к записи скачать торрент VA - Watchmen Хранители - 2009, FLAC

!Обратная связь